<?xml version="1.0" standalone="no"?>
<!DOCTYPE svg PUBLIC "-//W3C//DTD SVG 1.1//EN" "http://www.w3.org/Graphics/SVG/1.1/DTD/svg11.dtd" >
<svg>
<metadata>
Created by FontForge 20120731 at Sun Apr 17 08:56:24 2016
 By www
Copyright (c) 2014 by Charles Daoud. All rights reserved.
</metadata>
<defs>
<font id="DualW00-400" horiz-adv-x="690" >
  <font-face 
    font-family="DualW00-400"
    font-weight="500"
    font-stretch="normal"
    units-per-em="1000"
    panose-1="2 0 6 3 0 0 0 2 0 4"
    ascent="800"
    descent="-200"
    x-height="500"
    cap-height="710"
    bbox="-32 -250 1678 951"
    underline-thickness="50"
    underline-position="-125"
    unicode-range="U+000D-FB04"
  />
<missing-glyph horiz-adv-x="268" 
 />
    <glyph glyph-name="AE" unicode="AE" horiz-adv-x="1038" 
d="M499 710h483v-60h-410v-265h380v-60h-380v-265h410v-60h-470v205h-297l-145 -205h-73zM512 265v360l-255 -360h255z" />
    <glyph glyph-name="ae" unicode="ae" horiz-adv-x="868" 
d="M608 50q42 0 78.5 16t68.5 58l47 -36q-34 -48 -84 -73t-110 -25q-59 0 -106 27.5t-77 74.5q-24 -45 -78.5 -73.5t-123.5 -28.5q-40 0 -75 12.5t-61.5 34.5t-41.5 51.5t-15 62.5q0 32 16.5 58t44.5 44t65.5 28t80.5 10h143v42q0 49 -36.5 83t-108.5 34q-37 0 -70 -9
t-65 -32l-26 55q31 20 72 33t89 13q71 0 119 -29t70 -75q30 48 77.5 76t106.5 28q49 0 91 -20.5t72.5 -55.5t47.5 -82.5t17 -101.5v-12h-396q2 -39 16 -73.5t36.5 -60t52 -40t63.5 -14.5zM380 238h-143q-30 0 -57 -5.5t-47 -17t-31.5 -27.5t-11.5 -37t10.5 -39.5t28.5 -32
t42.5 -21.5t51.5 -8q33 0 61.5 8t49.5 21.5t33.5 32t12.5 39.5v87zM608 450q-33 0 -60.5 -12t-49 -33.5t-35.5 -50.5t-20 -63h329q-6 34 -20 63t-35.5 50.5t-49 33.5t-59.5 12z" />
    <glyph glyph-name="OE" unicode="OE" horiz-adv-x="1006" 
d="M950 710v-60h-410v-265h380v-60h-380v-265h410v-60h-547q-74 0 -138.5 28t-112.5 76t-76 112.5t-28 138.5q0 73 28 138t76 113t112.5 76t138.5 28h547zM403 650q-61 0 -115 -23t-94 -63t-63 -94t-23 -115t23 -115t63 -94t94 -63t115 -23h77v590h-77z" />
    <glyph glyph-name="oe" unicode="oe" horiz-adv-x="968" 
d="M900 88q-34 -48 -84 -73t-110 -25q-67 0 -118.5 35.5t-80.5 94.5q-31 -59 -87.5 -94.5t-129.5 -35.5q-54 0 -99.5 20.5t-78.5 55.5t-51.5 82.5t-18.5 101.5t18.5 101.5t51.5 82.5t78.5 55.5t99.5 20.5q73 0 129.5 -36t87.5 -95q29 59 80.5 95t118.5 36q49 0 91 -20.5
t72.5 -55.5t47.5 -82.5t17 -101.5v-27h-395q4 -37 18.5 -68.5t37 -55t51 -36.5t60.5 -13q42 0 78.5 16t68.5 58zM102 250q0 -41 13.5 -77.5t38.5 -63.5t59.5 -43t76.5 -16t76.5 16t59.5 43t38.5 63.5t13.5 77.5t-13.5 77.5t-38.5 63.5t-59.5 43t-76.5 16t-76.5 -16
t-59.5 -43t-38.5 -63.5t-13.5 -77.5zM706 450q-34 0 -63 -13.5t-51 -36.5t-35.5 -55t-17.5 -68h333q-4 36 -17.5 68t-35 55t-50.5 36.5t-63 13.5z" />
    <glyph glyph-name="uniFB00" unicode="ff" horiz-adv-x="590" 
d="M28 500h80v100q0 33 12.5 62t34.5 51t51 34.5t62 12.5q35 0 65 -14t52 -37l-44 -40q-14 14 -33 22.5t-40 8.5q-42 0 -71 -29t-29 -71v-100h214v100q0 33 12.5 62t34.5 51t51 34.5t62 12.5q35 0 65 -14t52 -37l-44 -40q-14 14 -33 22.5t-40 8.5q-42 0 -71 -29t-29 -71
v-100h140v-60h-140v-440h-60v440h-214v-440h-60v440h-80v60z" />
    <glyph glyph-name="uniFB01" unicode="fi" horiz-adv-x="531" 
d="M393 690h-125q-42 0 -71 -29t-29 -71v-90h140v-60h-140v-440h-60v440h-80v60h80v90q0 33 12.5 62t34.5 51t51 34.5t62 12.5h185v-140h-60v80zM393 500h60v-500h-60v500z" />
    <glyph glyph-name="uniFB02" unicode="fl" horiz-adv-x="531" 
d="M453 750v-750h-60v690h-125q-42 0 -71 -29t-29 -71v-90h140v-60h-140v-440h-60v440h-80v60h80v90q0 33 12.5 62t34.5 51t51 34.5t62 12.5h185z" />
    <glyph glyph-name="uniFB03" unicode="ffi" horiz-adv-x="805" 
d="M382 590q0 33 12.5 62t34.5 51t51 34.5t62 12.5h185v-140h-60v80h-125q-42 0 -71 -29t-29 -71v-90h140v-60h-140v-440h-60v440h-214v-440h-60v440h-80v60h80v100q0 33 12.5 62t34.5 51t51 34.5t62 12.5q35 0 65 -14t52 -37l-44 -40q-14 14 -33 22.5t-40 8.5
q-42 0 -71 -29t-29 -71v-100h214v90zM667 500h60v-500h-60v500z" />
    <glyph glyph-name="uniFB04" unicode="ffl" horiz-adv-x="805" 
d="M382 590q0 33 12.5 62t34.5 51t51 34.5t62 12.5h185v-750h-60v690h-125q-42 0 -71 -29t-29 -71v-90h140v-60h-140v-440h-60v440h-214v-440h-60v440h-80v60h80v100q0 33 12.5 62t34.5 51t51 34.5t62 12.5q35 0 65 -14t52 -37l-44 -40q-14 14 -33 22.5t-40 8.5
q-42 0 -71 -29t-29 -71v-100h214v90z" />
    <glyph glyph-name=".notdef" horiz-adv-x="268" 
 />
    <glyph glyph-name="glyph1" horiz-adv-x="0" 
 />
    <glyph glyph-name="glyph1" horiz-adv-x="0" 
 />
    <glyph glyph-name="uni000D" unicode="&#xd;" horiz-adv-x="264" 
 />
    <glyph glyph-name="space" unicode=" " horiz-adv-x="264" 
 />
    <glyph glyph-name="exclam" unicode="!" horiz-adv-x="218" 
d="M77 80h64v-80h-64v80zM77 500v210h64v-210l-5 -320h-54z" />
    <glyph glyph-name="quotedbl" unicode="&#x22;" horiz-adv-x="310" 
d="M68 710h60v-163h-60v163zM182 710h60v-163h-60v163z" />
    <glyph glyph-name="numbersign" unicode="#" horiz-adv-x="804" 
d="M474 200h-180l-22 -200h-60l22 200h-190l6 60h191l21 189h-190l6 60h191l23 201h60l-23 -201h180l23 201h60l-23 -201h191l-6 -60h-192l-21 -189h191l-6 -60h-192l-22 -200h-60zM301 260h180l21 189h-180z" />
    <glyph glyph-name="dollar" unicode="$" horiz-adv-x="637" 
d="M288 -15q-55 4 -100.5 21.5t-78.5 45t-51 63t-18 75.5h60q0 -57 51 -97.5t137 -47.5v296q-44 10 -85 23.5t-72.5 34.5t-51 53t-19.5 79q0 38 15.5 71.5t45 59.5t72 42.5t95.5 20.5v55h60v-55q51 -4 93 -20.5t72 -42.5t46.5 -59.5t16.5 -71.5h-60q0 25 -12 48t-34 40.5
t-53 29.5t-69 15v-276q46 -11 90.5 -24t79.5 -35t56.5 -55t21.5 -84q0 -41 -17 -76.5t-49 -63t-78 -44.5t-104 -21v-55h-60v55zM536 190q0 32 -15.5 54.5t-41 38t-60 25.5t-71.5 19v-282q45 3 80 15.5t59 32t36.5 44.5t12.5 53zM120 531q0 -30 13.5 -50.5t36 -35.5t53 -25
t65.5 -18v262q-79 -7 -123.5 -44.5t-44.5 -88.5z" />
    <glyph glyph-name="percent" unicode="%" horiz-adv-x="754" 
d="M51 580q0 27 10 50.5t28 41.5t41.5 28t50.5 10t50.5 -10t41.5 -28t28 -41.5t10 -50.5t-10 -50.5t-28 -41.5t-41.5 -28t-50.5 -10t-50.5 10t-41.5 28t-28 41.5t-10 50.5zM111 580q0 -29 20.5 -49.5t49.5 -20.5t49.5 20.5t20.5 49.5t-20.5 49.5t-49.5 20.5t-49.5 -20.5
t-20.5 -49.5zM444 130q0 27 10 50.5t28 41.5t41.5 28t50.5 10t50.5 -10t41.5 -28t28 -41.5t10 -50.5t-10 -50.5t-28 -41.5t-41.5 -28t-50.5 -10t-50.5 10t-41.5 28t-28 41.5t-10 50.5zM504 130q0 -29 20.5 -49.5t49.5 -20.5t49.5 20.5t20.5 49.5t-20.5 49.5t-49.5 20.5
t-49.5 -20.5t-20.5 -49.5zM638 710h79l-600 -710h-79z" />
    <glyph glyph-name="ampersand" unicode="&#x26;" horiz-adv-x="669" 
d="M104 551q0 36 13.5 68t37.5 56t56 37.5t68 13.5t68 -13.5t56 -37.5t37.5 -56t13.5 -68q0 -48 -25.5 -81t-64 -58.5t-83 -47.5t-83 -46.5t-64 -56t-25.5 -75.5q0 -29 13.5 -55t36.5 -45.5t54 -30.5t66 -11t66 11t54 30.5t36.5 45.5t13.5 55v81h-110v60h150q21 0 39 8
t31.5 21.5t21.5 32t8 38.5h60q0 -30 -11 -57.5t-30 -48.5t-44.5 -35t-54.5 -18v-82q0 -42 -18 -78.5t-49.5 -64t-73 -43.5t-89.5 -16t-89.5 16t-73 43.5t-49.5 64t-18 78.5t15 73.5t40 57.5v234zM394 551q0 24 -9 44.5t-25 36.5t-36.5 25t-44.5 9t-44.5 -9t-36.5 -25
t-25 -36.5t-9 -44.5v-185q37 25 78 45t74.5 40.5t55.5 44t22 55.5z" />
    <glyph glyph-name="quotesingle" unicode="'" horiz-adv-x="189" 
d="M68 710h64v-99q0 -26 -19 -45t-45 -19v37q10 0 17 7t7 17v22h-24v80z" />
    <glyph glyph-name="parenleft" unicode="(" horiz-adv-x="259" 
d="M231 -93v-27q-37 0 -70 37.5t-57.5 102t-38.5 151t-14 184.5t14 184.5t38.5 151t57.5 102t70 37.5v-27q-25 0 -46.5 -35.5t-38 -96t-26 -142t-9.5 -174.5t9.5 -174.5t26 -142t38 -96t46.5 -35.5z" />
    <glyph glyph-name="parenright" unicode=")" horiz-adv-x="260" 
d="M29 -93q25 0 46.5 35.5t38 96t26 142t9.5 174.5t-9.5 174.5t-26 142t-38 96t-46.5 35.5v27q37 0 70 -37.5t57.5 -102t38.5 -151t14 -184.5t-14 -184.5t-38.5 -151t-57.5 -102t-70 -37.5v27z" />
    <glyph glyph-name="asterisk" unicode="*" horiz-adv-x="334" 
d="M186 570v-74h-38v74l-64 -37l-19 33l64 37l-64 37l19 33l64 -37v74h38v-74l64 37l19 -33l-64 -37l64 -37l-19 -33z" />
    <glyph glyph-name="plus" unicode="+" horiz-adv-x="514" 
d="M48 348h179v179h60v-179h179v-60h-179v-179h-60v179h-179v60z" />
    <glyph glyph-name="comma" unicode="," horiz-adv-x="198" 
d="M67 80h64v-99q0 -26 -19 -45t-45 -19v37q10 0 17 7t7 17v22h-24v80z" />
    <glyph glyph-name="hyphen" unicode="-" horiz-adv-x="464" 
d="M67 310h330v-60h-330v60z" />
    <glyph glyph-name="period" unicode="." horiz-adv-x="198" 
d="M67 80h64v-80h-64v80z" />
    <glyph glyph-name="slash" unicode="/" horiz-adv-x="421" 
d="M319 750h64l-280 -790h-64z" />
    <glyph glyph-name="zero" unicode="0" horiz-adv-x="704" 
d="M54 355q0 77 20 144.5t58 118t93.5 79.5t126.5 29t126.5 -29t93.5 -79.5t58 -118t20 -144.5t-20 -144.5t-58 -118t-93.5 -79.5t-126.5 -29t-126.5 29t-93.5 79.5t-58 118t-20 144.5zM114 355q0 -65 15 -121.5t45 -98.5t74.5 -66.5t103.5 -24.5t103.5 24.5t74.5 66.5
t45 98.5t15 121.5q0 64 -15 121t-45 99t-74.5 66.5t-103.5 24.5t-103.5 -24.5t-74.5 -66.5t-45 -99t-15 -121z" />
    <glyph glyph-name="one" unicode="1" horiz-adv-x="282" 
d="M144 710h60v-710h-60v624l-78 -78l-43 43z" />
    <glyph glyph-name="two" unicode="2" horiz-adv-x="639" 
d="M45 60q0 55 20.5 96t54 72t76 54t87.5 43t87.5 39t76 42t54 52t20.5 68q0 29 -13 54.5t-38.5 44.5t-62 30t-84.5 11q-89 0 -139.5 -35.5t-57.5 -88.5l-59 11q6 36 26 68t52.5 55t77.5 36.5t100 13.5q60 0 108 -16t81 -43t51 -63.5t18 -77.5q0 -50 -20.5 -86.5t-54 -64
t-76 -48t-87.5 -40t-87.5 -39.5t-76 -46t-54 -60t-20.5 -82h477v-60h-537v60v0z" />
    <glyph glyph-name="three" unicode="3" horiz-adv-x="644" 
d="M98 176q3 -28 18.5 -52t42.5 -42t66 -28t90 -10q54 0 95 11.5t68.5 31.5t41 47t13.5 58t-13.5 58t-41 47t-68.5 31.5t-95 11.5h-33v60h33q45 0 79.5 10.5t57.5 28.5t34.5 42.5t11.5 51.5t-11.5 51.5t-34.5 42.5t-57.5 28.5t-79.5 10.5q-84 0 -129.5 -34t-52.5 -83l-59 10
q5 36 23.5 66.5t49 53t73 35t95.5 12.5q58 0 103 -15t76 -41.5t47.5 -61.5t16.5 -75q0 -51 -25 -92t-72 -67q64 -27 98 -75t34 -107q0 -43 -18.5 -81t-54 -66t-87 -44.5t-118.5 -16.5q-62 0 -110.5 14t-83.5 38.5t-56 57.5t-26 72z" />
    <glyph glyph-name="four" unicode="4" horiz-adv-x="632" 
d="M439 710h60v-440h93v-60h-93v-210h-60v210h-413v60zM108 270h331v353z" />
    <glyph glyph-name="five" unicode="5" horiz-adv-x="636" 
d="M128 710h402v-60h-352l-40 -220h183q65 0 116.5 -17.5t87.5 -48t55 -71t19 -86.5t-19 -86.5t-55 -71t-87.5 -48t-116.5 -17.5q-60 0 -108.5 15t-84 41.5t-57 62.5t-26.5 77l59 10q3 -31 19 -57.5t43.5 -46t66.5 -31t88 -11.5q52 0 93 13t68.5 35t42 51.5t14.5 63.5
t-14.5 63.5t-42 51.5t-68.5 35t-93 13h-255z" />
    <glyph glyph-name="six" unicode="6" horiz-adv-x="636" 
d="M334 44q45 0 81.5 14t62.5 38t40 56t14 68q0 35 -13.5 66t-39 54t-62.5 36.5t-83 13.5q-41 0 -76 -13.5t-61 -36.5t-40.5 -54t-14.5 -66q0 -36 14.5 -68t40.5 -56t61 -38t76 -14zM509 580q-26 42 -71.5 64t-103.5 22q-59 0 -100 -24.5t-67.5 -66.5t-38.5 -99t-12 -121
v-12q35 48 92 77.5t126 29.5q58 0 106 -18t81.5 -49.5t52 -73t18.5 -89.5q0 -49 -19 -92t-53 -75t-81.5 -50.5t-104.5 -18.5q-72 0 -124.5 29t-86.5 79.5t-50.5 118t-16.5 144.5t17 144.5t51.5 118t86.5 79.5t123 29q75 0 132.5 -29.5t92.5 -83.5z" />
    <glyph glyph-name="seven" unicode="7" horiz-adv-x="526" 
d="M25 710h486v-60l-326 -650h-67l326 650h-419v60z" />
    <glyph glyph-name="eight" unicode="8" horiz-adv-x="658" 
d="M51 192q0 59 33.5 107t98.5 75q-48 26 -72.5 67t-24.5 92q0 40 16.5 75t47.5 61.5t76 41.5t103 15t103 -15t76 -41.5t47.5 -61.5t16.5 -75q0 -51 -25 -92t-72 -67q64 -27 98 -75t34 -107q0 -43 -18.5 -81t-54 -66t-87 -44.5t-118.5 -16.5t-118.5 16.5t-87 44.5t-54 66
t-18.5 81zM146 533q0 -27 11.5 -51.5t34.5 -42.5t57.5 -28.5t79.5 -10.5t79.5 10.5t57.5 28.5t34.5 42.5t11.5 51.5t-11.5 51.5t-34.5 42.5t-57.5 28.5t-79.5 10.5t-79.5 -10.5t-57.5 -28.5t-34.5 -42.5t-11.5 -51.5zM111 192q0 -31 13.5 -58t41 -47t68.5 -31.5t95 -11.5
t95 11.5t68.5 31.5t41 47t13.5 58t-13.5 58t-41 47t-68.5 31.5t-95 11.5t-95 -11.5t-68.5 -31.5t-41 -47t-13.5 -58z" />
    <glyph glyph-name="nine" unicode="9" horiz-adv-x="636" 
d="M302 666q-45 0 -81.5 -14t-62.5 -38t-40 -56t-14 -68q0 -35 13.5 -66t39 -54t62.5 -36.5t83 -13.5q41 0 76 13.5t61 36.5t40.5 54t14.5 66q0 36 -14.5 68t-40.5 56t-61 38t-76 14zM127 130q26 -42 71.5 -64t103.5 -22t99.5 24.5t68 66.5t38.5 98.5t12 121.5v12
q-35 -48 -92 -77.5t-126 -29.5q-59 0 -106.5 18t-81 49.5t-52 73t-18.5 89.5q0 49 19 92t53 75t81.5 50.5t104.5 18.5q72 0 124.5 -29t86.5 -79.5t50.5 -118t16.5 -144.5t-17 -144.5t-51.5 -118t-86.5 -79.5t-123 -29q-75 0 -132.5 29.5t-92.5 83.5z" />
    <glyph glyph-name="colon" unicode=":" horiz-adv-x="198" 
d="M67 80h64v-80h-64v80zM67 425h64v-80h-64v80z" />
    <glyph glyph-name="semicolon" unicode=";" horiz-adv-x="200" 
d="M68 80h64v-99q0 -26 -19 -45t-45 -19v37q10 0 17 7t7 17v22h-24v80zM68 425h64v-80h-64v80z" />
    <glyph glyph-name="less" unicode="&#x3c;" horiz-adv-x="466" 
d="M37 346l364 200v-67l-304 -167l304 -167v-67l-364 200v68z" />
    <glyph glyph-name="equal" unicode="=" horiz-adv-x="514" 
d="M72 425h370v-60h-370v60zM72 255h370v-60h-370v60z" />
    <glyph glyph-name="greater" unicode="&#x3e;" horiz-adv-x="466" 
d="M429 278l-364 -200v67l304 167l-304 167v67l364 -200v-68z" />
    <glyph glyph-name="question" unicode="?" horiz-adv-x="583" 
d="M214 80h64v-80h-64v80zM216 180q0 54 20 91t50 64t65 46.5t65 40t50 45t20 59.5q0 29 -15.5 54.5t-41.5 44.5t-62 30t-76 11q-44 0 -80 -11t-61.5 -30t-39.5 -44.5t-14 -54.5h-60q0 41 18.5 77.5t52.5 63.5t80.5 43t103.5 16q53 0 99.5 -16t81 -43t54.5 -63.5t20 -77.5
q0 -46 -20 -78t-50 -56t-65 -44t-65 -43t-50 -52.5t-20 -72.5h-60z" />
    <glyph glyph-name="at" unicode="@" horiz-adv-x="833" 
d="M217 355q0 42 16 79.5t44 65.5t65.5 44t79.5 16t79.5 -16t65.5 -44t44 -65.5t16 -79.5v-72q0 -22 15.5 -37.5t37.5 -15.5t37.5 15.5t15.5 37.5v72q0 64 -24.5 121t-66.5 99t-99 66.5t-121 24.5q-65 0 -121.5 -24.5t-98.5 -66.5t-66.5 -99t-24.5 -121q0 -65 24.5 -121.5
t66.5 -98.5t98.5 -66.5t121.5 -24.5v-60q-77 0 -144.5 29t-118 79.5t-79.5 118t-29 144.5t29 144.5t79.5 118t118 79.5t144.5 29t144.5 -29t118 -79.5t79.5 -118t29 -144.5v-72q0 -23 -9 -43.5t-24.5 -36t-36 -24.5t-43.5 -9q-32 0 -58 15.5t-40 41.5q-29 -35 -70.5 -56
t-89.5 -21q-42 0 -79.5 16t-65.5 44t-44 65.5t-16 79.5zM277 355q0 -30 11.5 -56.5t31 -46t46 -31t56.5 -11.5t56.5 11.5t46 31t31 46t11.5 56.5t-11.5 56.5t-31 46t-46 31t-56.5 11.5t-56.5 -11.5t-46 -31t-31 -46t-11.5 -56.5z" />
    <glyph glyph-name="A" unicode="A" 
d="M310 710h70l299 -710h-65l-88 208h-363l-87 -208h-65zM189 268h312l-156 370z" />
    <glyph glyph-name="B" unicode="B" horiz-adv-x="734" 
d="M97 0v710h353q40 0 75 -15t61.5 -41.5t41.5 -61.5t15 -75q0 -46 -19.5 -85t-51.5 -65q50 -23 81 -69.5t31 -105.5q0 -40 -15 -75t-41.5 -61t-61.5 -41t-75 -15h-394zM157 325v-265h334q27 0 51.5 10.5t42.5 28.5t28.5 42t10.5 51t-10.5 51.5t-28.5 42.5t-42.5 28.5
t-51.5 10.5h-334zM157 650v-265h293q27 0 51.5 10.5t42.5 28.5t28.5 42t10.5 51t-10.5 51.5t-28.5 42.5t-42.5 28.5t-51.5 10.5h-293z" />
    <glyph glyph-name="C" unicode="C" horiz-adv-x="711" 
d="M678 89q-51 -49 -117 -77t-142 -28q-77 0 -144.5 29t-118 79.5t-79.5 118t-29 144.5t29 144.5t79.5 118t118 79.5t144.5 29q76 0 142 -28t117 -77l-42 -43q-42 42 -97.5 65t-119.5 23q-65 0 -121.5 -24.5t-98.5 -66.5t-66.5 -99t-24.5 -121q0 -65 24.5 -121.5t66.5 -98.5
t98.5 -66.5t121.5 -24.5q64 0 119.5 23t97.5 65l42 -43v0z" />
    <glyph glyph-name="D" unicode="D" horiz-adv-x="761" 
d="M97 710h261q73 0 138 -28t113 -76t76 -113t28 -138q0 -74 -28 -138.5t-76 -112.5t-113 -76t-138 -28h-261v710zM157 650v-590h201q61 0 115 23t94 63t63 94t23 115t-23 115t-63 94t-94 63t-115 23h-201z" />
    <glyph glyph-name="E" unicode="E" horiz-adv-x="649" 
d="M97 710h496v-60h-436v-265h406v-60h-406v-265h436v-60h-496v710z" />
    <glyph glyph-name="F" unicode="F" horiz-adv-x="642" 
d="M97 710h496v-60h-436v-265h406v-60h-406v-325h-60v710z" />
    <glyph glyph-name="G" unicode="G" horiz-adv-x="758" 
d="M634 52q-46 -32 -100.5 -50t-114.5 -18q-77 0 -144.5 29t-118 79.5t-79.5 118t-29 144.5t29 144.5t79.5 118t118 79.5t144.5 29q76 0 142 -28t117 -77l-42 -43q-42 42 -97.5 65t-119.5 23q-65 0 -121.5 -24.5t-98.5 -66.5t-66.5 -99t-24.5 -121q0 -65 24.5 -121.5
t66.5 -98.5t98.5 -66.5t121.5 -24.5q63 0 118 22.5t97 63.5v185h-295v61h355v-376h-60v52z" />
    <glyph glyph-name="H" unicode="H" horiz-adv-x="776" 
d="M619 325h-462v-325h-60v710h60v-325h462v325h60v-710h-60v325z" />
    <glyph glyph-name="I" unicode="I" horiz-adv-x="254" 
d="M97 710h60v-710h-60v710z" />
    <glyph glyph-name="J" unicode="J" horiz-adv-x="480" 
d="M57 106q20 -29 52 -45.5t70 -16.5q31 0 58.5 12t47.5 32t32 47.5t12 58.5v516h60v-516q0 -44 -16.5 -82t-45 -66.5t-67 -45t-81.5 -16.5q-51 0 -93.5 21.5t-71.5 58.5z" />
    <glyph glyph-name="K" unicode="K" horiz-adv-x="653" 
d="M305 366l-148 -151v-215h-60v710h60v-410l402 410h83l-294 -300l294 -410h-74z" />
    <glyph glyph-name="L" unicode="L" horiz-adv-x="620" 
d="M97 710h60v-650h446v-60h-506v710z" />
    <glyph glyph-name="M" unicode="M" horiz-adv-x="906" 
d="M157 0h-60v710h60l296 -641l296 641h60v-710h-60v570l-263 -570h-66l-263 570v-570z" />
    <glyph glyph-name="N" unicode="N" horiz-adv-x="776" 
d="M157 0h-60v710h60l462 -611v611h60v-710h-60l-462 611v-611z" />
    <glyph glyph-name="O" unicode="O" horiz-adv-x="838" 
d="M48 355q0 77 29 144.5t79.5 118t118 79.5t144.5 29t144.5 -29t118 -79.5t79.5 -118t29 -144.5t-29 -144.5t-79.5 -118t-118 -79.5t-144.5 -29t-144.5 29t-118 79.5t-79.5 118t-29 144.5zM108 355q0 -65 24.5 -121.5t66.5 -98.5t98.5 -66.5t121.5 -24.5q64 0 121 24.5
t99 66.5t66.5 98.5t24.5 121.5q0 64 -24.5 121t-66.5 99t-99 66.5t-121 24.5q-65 0 -121.5 -24.5t-98.5 -66.5t-66.5 -99t-24.5 -121z" />
    <glyph glyph-name="P" unicode="P" horiz-adv-x="677" 
d="M157 0h-60v710h313q48 0 90.5 -18.5t74 -50t50 -74t18.5 -90.5t-18.5 -90.5t-50 -74t-74 -49.5t-90.5 -18h-253v-245zM157 305h253q36 0 67.5 13.5t55 37t37 54.5t13.5 67t-13.5 67.5t-37 55t-55 37t-67.5 13.5h-253v-345z" />
    <glyph glyph-name="Q" unicode="Q" horiz-adv-x="838" 
d="M659 72q-49 -42 -110 -65t-130 -23q-77 0 -144.5 29t-118 79.5t-79.5 118t-29 144.5t29 144.5t79.5 118t118 79.5t144.5 29t144.5 -29t118 -79.5t79.5 -118t29 -144.5q0 -69 -23.5 -130.5t-65.5 -110.5l73 -72l-43 -42zM108 355q0 -65 24.5 -121.5t66.5 -98.5t98.5 -66.5
t121.5 -24.5q57 0 107 18.5t90 51.5l-79 80l42 43l80 -80q33 40 52 90.5t19 107.5q0 64 -24.5 121t-66.5 99t-99 66.5t-121 24.5q-65 0 -121.5 -24.5t-98.5 -66.5t-66.5 -99t-24.5 -121z" />
    <glyph glyph-name="R" unicode="R" horiz-adv-x="693" 
d="M393 255h-236v-255h-60v710h318q47 0 88.5 -18t72.5 -49t49 -72.5t18 -88.5q0 -41 -14 -78t-38 -66.5t-57.5 -50t-72.5 -28.5l171 -259h-71zM157 650v-335h258q35 0 65.5 13t53.5 35.5t36 53t13 65.5t-13 65.5t-36 53.5t-53.5 36t-65.5 13h-258z" />
    <glyph glyph-name="S" unicode="S" horiz-adv-x="644" 
d="M519 531q0 28 -14 52.5t-40 43t-62.5 29t-81.5 10.5q-46 0 -83 -10.5t-62.5 -29t-39 -43t-13.5 -52.5q0 -37 20.5 -60.5t54 -38.5t76 -25.5t87.5 -21t87.5 -24t76 -35t54 -54.5t20.5 -82q0 -43 -19 -80.5t-55 -65.5t-87.5 -44t-116.5 -16q-61 0 -112 16t-88 44
t-57.5 65.5t-20.5 80.5h60q0 -30 16 -57t44.5 -46.5t68.5 -31t89 -11.5q52 0 93 11.5t68.5 31t42 46.5t14.5 57q0 38 -20.5 62t-54 40t-76 26.5t-87.5 21t-87.5 23.5t-76 34t-54 53.5t-20.5 80.5q0 40 18 76t51 62t81 41.5t108 15.5q57 0 104.5 -15.5t81.5 -41.5t53 -62
t19 -76h-60z" />
    <glyph glyph-name="T" unicode="T" horiz-adv-x="636" 
d="M15 710h606v-60h-273v-650h-60v650h-273v60z" />
    <glyph glyph-name="U" unicode="U" horiz-adv-x="758" 
d="M610 710h60v-435q0 -60 -23 -113t-62.5 -92.5t-92.5 -62.5t-113 -23t-113 23t-92.5 62.5t-62.5 92.5t-23 113v435h60v-435q0 -48 18 -90t49.5 -73.5t73.5 -49.5t90 -18t90 18t73.5 49.5t49.5 73.5t18 90v435z" />
    <glyph glyph-name="V" unicode="V" 
d="M345 72l269 638h65l-299 -710h-70l-299 710h65z" />
    <glyph glyph-name="W" unicode="W" horiz-adv-x="938" 
d="M469 603l-175 -603h-64l-206 710h63l175 -603l175 603h64l175 -603l175 603h63l-206 -710h-64z" />
    <glyph glyph-name="X" unicode="X" horiz-adv-x="624" 
d="M349 355l260 -355h-74l-223 304l-223 -304h-74l260 355l-260 355h74l223 -305l223 305h74z" />
    <glyph glyph-name="Y" unicode="Y" horiz-adv-x="676" 
d="M368 296v-296h-60v296l-297 414h74l253 -353l253 353h74z" />
    <glyph glyph-name="Z" unicode="Z" horiz-adv-x="657" 
d="M45 710h572v-60l-503 -590h503v-60h-582v60l503 590h-493v60z" />
    <glyph glyph-name="bracketleft" unicode="[" horiz-adv-x="276" 
d="M133 -60h120v-60h-180v950h180v-60h-120v-830z" />
    <glyph glyph-name="backslash" unicode="\" horiz-adv-x="421" 
d="M382 -40h-64l-280 790h64z" />
    <glyph glyph-name="bracketright" unicode="]" horiz-adv-x="276" 
d="M143 770h-120v60h180v-950h-180v60h120v830z" />
    <glyph glyph-name="asciicircum" unicode="^" horiz-adv-x="494" 
d="M441 426h-68l-126 223l-126 -223h-68l160 284h68z" />
    <glyph glyph-name="underscore" unicode="_" horiz-adv-x="576" 
d="M63 -10h450v-60h-450v60z" />
    <glyph glyph-name="grave" unicode="`" horiz-adv-x="376" 
d="M264 563l-177 91l26 51l176 -98z" />
    <glyph glyph-name="a" unicode="a" horiz-adv-x="511" 
d="M380 67q-24 -35 -65.5 -56t-91.5 -21q-40 0 -75 12.5t-61.5 34.5t-41.5 51.5t-15 62.5q0 32 16.5 60.5t44.5 49.5t65.5 33t80.5 12h143v27q0 49 -36.5 83t-108.5 34q-37 0 -70 -9t-65 -32l-26 55q31 20 72 33t89 13t86.5 -14t64.5 -38t40 -56t14 -69v-333h-60v67z
M380 253h-143q-30 0 -57 -8t-47 -22t-31.5 -32.5t-11.5 -39.5t10.5 -39.5t28.5 -32t42.5 -21.5t51.5 -8q33 0 61.5 8t49.5 21.5t33.5 32t12.5 39.5v102z" />
    <glyph glyph-name="b" unicode="b" horiz-adv-x="578" 
d="M76 750h60v-342q31 47 77 74.5t100 27.5q46 0 86.5 -20.5t71 -55.5t48 -82.5t17.5 -101.5t-17.5 -101.5t-48 -82.5t-71 -55.5t-86.5 -20.5q-54 0 -100 27.5t-77 74.5v-92h-60v750zM313 50q34 0 63.5 16t51.5 43t35 63.5t13 77.5t-13 77.5t-35 63.5t-51.5 43t-63.5 16
q-37 0 -70 -16t-57.5 -43t-38.5 -63.5t-14 -77.5t14 -77.5t38.5 -63.5t57.5 -43t70 -16z" />
    <glyph glyph-name="c" unicode="c" horiz-adv-x="500" 
d="M470 69q-33 -37 -79 -58t-102 -21q-54 0 -99.5 20.5t-78.5 55.5t-51.5 82.5t-18.5 101.5t18.5 101.5t51.5 82.5t78.5 55.5t99.5 20.5q56 0 102 -21t79 -58l-45 -40q-25 27 -59.5 43t-76.5 16t-76.5 -16t-59.5 -43t-38.5 -63.5t-13.5 -77.5t13.5 -77.5t38.5 -63.5
t59.5 -43t76.5 -16t76.5 15.5t59.5 43.5l45 -40v0z" />
    <glyph glyph-name="d" unicode="d" horiz-adv-x="578" 
d="M502 0h-60v92q-31 -47 -77 -74.5t-100 -27.5q-46 0 -86.5 20.5t-71 55.5t-48 82.5t-17.5 101.5t17.5 101.5t48 82.5t71 55.5t86.5 20.5q54 0 100 -27.5t77 -74.5v342h60v-750zM265 50q37 0 70 16t57.5 43t38.5 63.5t14 77.5t-14 77.5t-38.5 63.5t-57.5 43t-70 16
q-34 0 -63.5 -16t-51.5 -43t-35 -63.5t-13 -77.5t13 -77.5t35 -63.5t51.5 -43t63.5 -16z" />
    <glyph glyph-name="e" unicode="e" horiz-adv-x="532" 
d="M464 88q-34 -48 -84 -73t-110 -25q-50 0 -91.5 20.5t-72 55.5t-47.5 82.5t-17 101.5t17 101.5t47.5 82.5t72 55.5t91.5 20.5q49 0 91 -20.5t72.5 -55.5t47.5 -82.5t17 -101.5v-27h-395q4 -37 18.5 -68.5t37 -55t51 -36.5t60.5 -13q42 0 78.5 16t68.5 58zM270 450
q-34 0 -63 -13.5t-51 -36.5t-35.5 -55t-17.5 -68h333q-4 36 -17.5 68t-35 55t-50.5 36.5t-63 13.5z" />
    <glyph glyph-name="f" unicode="f" horiz-adv-x="316" 
d="M28 500h80v100q0 33 12.5 62t34.5 51t51 34.5t62 12.5q35 0 65 -14t52 -37l-44 -40q-14 14 -33 22.5t-40 8.5q-42 0 -71 -29t-29 -71v-100h140v-60h-140v-440h-60v440h-80v60z" />
    <glyph glyph-name="g" unicode="g" horiz-adv-x="578" 
d="M502 5q0 -45 -15.5 -85t-45 -70t-73 -47.5t-98.5 -17.5q-53 0 -99.5 11t-90.5 39l29 52q43 -23 79.5 -32.5t81.5 -9.5q43 0 75.5 12.5t54 34.5t32 51t10.5 62v87q-31 -47 -77 -74.5t-100 -27.5q-46 0 -86.5 20.5t-71 55.5t-48 82.5t-17.5 101.5t17.5 101.5t48 82.5
t71 55.5t86.5 20.5q54 0 100 -27.5t77 -74.5v92h60v-495zM265 450q-34 0 -63.5 -16t-51.5 -43t-35 -63.5t-13 -77.5t13 -77.5t35 -63.5t51.5 -43t63.5 -16q37 0 70 16t57.5 43t38.5 63.5t14 77.5t-14 77.5t-38.5 63.5t-57.5 43t-70 16z" />
    <glyph glyph-name="h" unicode="h" horiz-adv-x="556" 
d="M76 750h60v-312q27 33 67 52.5t88 19.5q40 0 76 -15.5t62 -41.5t41.5 -62t15.5 -76v-315h-60v305q0 30 -11.5 56.5t-31 46t-46 31t-56.5 11.5q-29 0 -55.5 -11.5t-46.5 -31t-31.5 -46t-11.5 -56.5v-305h-60v750z" />
    <glyph glyph-name="i" unicode="i" horiz-adv-x="214" 
d="M77 500h60v-500h-60v500zM77 710h60v-100h-60v100z" />
    <glyph glyph-name="j" unicode="j" horiz-adv-x="214" 
d="M77 710h60v-100h-60v100zM137 -55q0 -33 -12.5 -62t-34.5 -51t-51 -34.5t-62 -12.5v60q42 0 71 29t29 71v555h60v-555z" />
    <glyph glyph-name="k" unicode="k" horiz-adv-x="500" 
d="M239 242l-103 -107v-135h-60v750h60v-529l270 279h83l-207 -214l207 -286h-74z" />
    <glyph glyph-name="l" unicode="l" horiz-adv-x="214" 
d="M77 750h60v-750h-60v750z" />
    <glyph glyph-name="m" unicode="m" horiz-adv-x="906" 
d="M76 500h60v-62q27 33 67 52.5t88 19.5q56 0 101.5 -28.5t70.5 -74.5q26 46 73.5 74.5t104.5 28.5q40 0 76 -15.5t62 -41.5t41.5 -62t15.5 -76v-315h-60v305q0 30 -11.5 56.5t-31 46t-46 31t-56.5 11.5q-29 0 -55.5 -11.5t-46.5 -31t-31.5 -46t-11.5 -56.5v-305h-60v305
q0 30 -11.5 56.5t-31 46t-46 31t-56.5 11.5q-29 0 -55.5 -11.5t-46.5 -31t-31.5 -46t-11.5 -56.5v-305h-60v500z" />
    <glyph glyph-name="n" unicode="n" horiz-adv-x="556" 
d="M76 500h60v-62q27 33 67 52.5t88 19.5q40 0 76 -15.5t62 -41.5t41.5 -62t15.5 -76v-315h-60v305q0 30 -11.5 56.5t-31 46t-46 31t-56.5 11.5q-29 0 -55.5 -11.5t-46.5 -31t-31.5 -46t-11.5 -56.5v-305h-60v500z" />
    <glyph glyph-name="o" unicode="o" horiz-adv-x="578" 
d="M101 250q0 -41 13.5 -77.5t38.5 -63.5t59.5 -43t76.5 -16t76.5 16t59.5 43t38.5 63.5t13.5 77.5t-13.5 77.5t-38.5 63.5t-59.5 43t-76.5 16t-76.5 -16t-59.5 -43t-38.5 -63.5t-13.5 -77.5zM41 250q0 54 18.5 101.5t51.5 82.5t78.5 55.5t99.5 20.5t99.5 -20.5t78.5 -55.5
t51.5 -82.5t18.5 -101.5t-18.5 -101.5t-51.5 -82.5t-78.5 -55.5t-99.5 -20.5t-99.5 20.5t-78.5 55.5t-51.5 82.5t-18.5 101.5z" />
    <glyph glyph-name="p" unicode="p" horiz-adv-x="578" 
d="M76 500h60v-92q31 47 77 74.5t100 27.5q46 0 86.5 -20.5t71 -55.5t48 -82.5t17.5 -101.5t-17.5 -101.5t-48 -82.5t-71 -55.5t-86.5 -20.5q-54 0 -100 27.5t-77 74.5v-302h-60v710zM313 450q-37 0 -70 -16t-57.5 -43t-38.5 -63.5t-14 -77.5t14 -77.5t38.5 -63.5t57.5 -43
t70 -16q34 0 63.5 16t51.5 43t35 63.5t13 77.5t-13 77.5t-35 63.5t-51.5 43t-63.5 16z" />
    <glyph glyph-name="q" unicode="q" horiz-adv-x="578" 
d="M502 -210h-60v302q-31 -47 -77 -74.5t-100 -27.5q-46 0 -86.5 20.5t-71 55.5t-48 82.5t-17.5 101.5t17.5 101.5t48 82.5t71 55.5t86.5 20.5q54 0 100 -27.5t77 -74.5v92h60v-710zM265 450q-34 0 -63.5 -16t-51.5 -43t-35 -63.5t-13 -77.5t13 -77.5t35 -63.5t51.5 -43
t63.5 -16q37 0 70 16t57.5 43t38.5 63.5t14 77.5t-14 77.5t-38.5 63.5t-57.5 43t-70 16z" />
    <glyph glyph-name="r" unicode="r" horiz-adv-x="328" 
d="M76 500h60v-96q29 59 78.5 82.5t106.5 23.5v-60q-48 0 -83 -15t-57.5 -41t-33.5 -61t-11 -74v-259h-60v500z" />
    <glyph glyph-name="s" unicode="s" horiz-adv-x="485" 
d="M372 369q0 34 -32.5 57.5t-97.5 23.5t-97.5 -23.5t-32.5 -57.5q0 -31 24.5 -47t62 -25.5t80.5 -17t80.5 -23t62 -42.5t24.5 -75q0 -31 -14 -58t-40.5 -47.5t-64 -32t-85.5 -11.5t-85.5 11.5t-64 32t-40.5 47.5t-14 58h60q0 -19 11 -35.5t30 -28.5t45.5 -18.5t57.5 -6.5
t57.5 6.5t45.5 18.5t30 28.5t11 35.5q0 34 -24.5 50.5t-62 26.5t-80.5 17t-80.5 21t-62 40.5t-24.5 74.5q0 29 12 55t36 45t59.5 30t82.5 11t82.5 -11t59.5 -30t36 -45t12 -55h-60v0z" />
    <glyph glyph-name="t" unicode="t" horiz-adv-x="291" 
d="M162 500h100v-60h-100v-280q0 -42 29 -71t71 -29v-60q-33 0 -62 12.5t-51 34.5t-34.5 51t-12.5 62v280h-90v60h90v196l60 14v-210z" />
    <glyph glyph-name="u" unicode="u" horiz-adv-x="556" 
d="M480 0h-60v62q-27 -33 -67 -52.5t-88 -19.5q-41 0 -76.5 15.5t-61.5 41.5t-41.5 61.5t-15.5 76.5v315h60v-305q0 -30 11.5 -56.5t31 -46t46 -31t56.5 -11.5q29 0 55.5 11.5t46.5 31t31.5 46t11.5 56.5v305h60v-500z" />
    <glyph glyph-name="v" unicode="v" horiz-adv-x="512" 
d="M289 0h-66l-203 500h65l171 -421l171 421h65z" />
    <glyph glyph-name="w" unicode="w" horiz-adv-x="710" 
d="M355 396l-119 -396h-62l-150 500h62l119 -397l119 397h62l119 -397l119 397h62l-150 -500h-62z" />
    <glyph glyph-name="x" unicode="x" horiz-adv-x="470" 
d="M271 249l180 -249h-73l-143 199l-143 -199h-73l179 249l-180 251h73l144 -200l144 200h73z" />
    <glyph glyph-name="y" unicode="y" horiz-adv-x="512" 
d="M99 -150q18 1 35 8q14 6 29 18t25 35l35 88l-203 501h65l171 -421l171 421h65l-245 -603q-17 -40 -41.5 -61.5t-48.5 -31.5q-28 -12 -58 -14v60z" />
    <glyph glyph-name="z" unicode="z" horiz-adv-x="481" 
d="M51 500h390v-60l-331 -380h331v-60h-410v60l332 380h-312v60z" />
    <glyph glyph-name="braceleft" unicode="{" horiz-adv-x="312" 
d="M56 386q22 0 37.5 16t15.5 37v278q0 23 9 43.5t24.5 36t36 24.5t43.5 9h67v-60h-67q-22 0 -37.5 -15.5t-15.5 -37.5v-278q0 -25 -10 -46.5t-27 -36.5q17 -16 27 -37.5t10 -45.5v-280q0 -22 15.5 -37.5t37.5 -15.5h67v-60h-67q-23 0 -43.5 9t-36 24.5t-24.5 36t-9 43.5
v280q0 22 -15.5 37.5t-37.5 15.5h-27v60h27z" />
    <glyph glyph-name="bar" unicode="|" horiz-adv-x="208" 
d="M74 850h60v-1010h-60v1010z" />
    <glyph glyph-name="braceright" unicode="}" horiz-adv-x="312" 
d="M283 386v-60h-27q-22 0 -37.5 -15.5t-15.5 -37.5v-280q0 -23 -9 -43.5t-24.5 -36t-36 -24.5t-43.5 -9h-67v60h67q22 0 37.5 15.5t15.5 37.5v280q0 24 10 45.5t27 37.5q-17 15 -27 36.5t-10 46.5v278q0 22 -15.5 37.5t-37.5 15.5h-67v60h67q23 0 43.5 -9t36 -24.5
t24.5 -36t9 -43.5v-278q0 -21 15.5 -37t37.5 -16h27z" />
    <glyph glyph-name="asciitilde" unicode="~" horiz-adv-x="558" 
d="M102 479q35 35 65.5 41.5t57.5 -2t52 -25t49 -28t48 -11.5t49 25l32 32l43 -42l-33 -33q-35 -35 -65.5 -41.5t-57.5 2t-52 25t-49 28t-48 11.5t-49 -25l-32 -32l-43 42z" />
    <glyph glyph-name="exclamdown" unicode="&#xa1;" horiz-adv-x="218" 
d="M77 630.005h64v79.9951h-64v-79.9951zM77 210.03v-209.987h64v209.987l-5 319.98h-54z" />
    <glyph glyph-name="cent" unicode="&#xa2;" horiz-adv-x="532" 
d="M244 -4q-43 9 -78.5 32.5t-60.5 57t-39 75.5t-14 89q0 46 14 88t39 75.5t60.5 57t78.5 33.5v66h60v-60q54 -1 99.5 -22t77.5 -57l-45 -40q-24 26 -57.5 42t-74.5 17v-400q41 1 74.5 16.5t57.5 42.5l45 -40q-32 -36 -77.5 -57t-99.5 -22v-60h-60v66zM112 250q0 -34 9 -65
t26.5 -56t42 -43.5t54.5 -27.5v384q-61 -19 -96.5 -71.5t-35.5 -120.5z" />
    <glyph glyph-name="sterling" unicode="&#xa3;" horiz-adv-x="546" 
d="M498 60v-60h-440v60q53 65 73.5 114t20.5 90q0 4 -0.5 8.5t-0.5 8.5q-1 4 -1 9h-92v60h76q-12 35 -25.5 72t-13.5 83t17.5 86t47.5 70t70 47.5t85 17.5q53 0 98 -23t75 -61l-44 -42q-22 30 -55.5 48t-73.5 18q-33 0 -62 -12.5t-51 -34.5t-34.5 -51.5t-12.5 -62.5
q0 -38 15 -76t27 -79h209v-60h-196q0 -5 1 -9q0 -5 0.5 -10t0.5 -10q0 -46 -18 -95.5t-63 -105.5h367z" />
    <glyph glyph-name="yen" unicode="&#xa5;" horiz-adv-x="712" 
d="M184 337h112l-267 373h74l253 -353l253 353h74l-268 -373h113v-50h-142v-99h142v-50h-142v-138h-60v138h-142v50h142v99h-142v50z" />
    <glyph glyph-name="brokenbar" unicode="&#xa6;" horiz-adv-x="222" 
d="M81 860h60v-420h-60v420zM81 250h60v-420h-60v420z" />
    <glyph glyph-name="section" unicode="&#xa7;" horiz-adv-x="526" 
d="M390 585q0 34 -32.5 57.5t-97.5 23.5t-97.5 -23.5t-32.5 -57.5q0 -31 24.5 -47t62 -25.5t80.5 -17t80.5 -23t62 -42.5t24.5 -75q0 -35 -17.5 -64.5t-49.5 -49.5q29 -16 48 -41t19 -67q0 -31 -14 -58t-40.5 -47.5t-64 -32t-85.5 -11.5t-85.5 11.5t-64 32t-40.5 47.5
t-14 58h60q0 -19 11 -35.5t30 -28.5t45.5 -18.5t57.5 -6.5t57.5 6.5t45.5 18.5t30 28.5t11 35.5q0 34 -24.5 50.5t-62 26.5t-80.5 17t-80.5 21t-62 40.5t-24.5 74.5q0 35 17.5 64.5t52.5 49.5q-31 14 -50.5 39.5t-19.5 68.5q0 29 12 55t36 45t59.5 30t82.5 11t82.5 -11
t59.5 -30t36 -45t12 -55h-60zM130 363q0 -25 15.5 -39.5t41 -24t57.5 -15.5t65 -13q43 9 69 31.5t26 52.5q0 22 -12 37t-31.5 24.5t-45 15.5t-53.5 12q-66 0 -99 -23.5t-33 -57.5z" />
    <glyph glyph-name="dieresis" unicode="&#xa8;" horiz-adv-x="390" 
d="M87 647h66v-73h-66v73zM237 647h66v-73h-66v73z" />
    <glyph glyph-name="copyright" unicode="&#xa9;" horiz-adv-x="596" 
d="M58 351q0 49 19 93t51.5 76.5t76 51.5t93.5 19q49 0 93 -19t76.5 -51.5t51.5 -76.5t19 -93q0 -50 -19 -93.5t-51.5 -76t-76.5 -51.5t-93 -19q-50 0 -93.5 19t-76 51.5t-51.5 76t-19 93.5zM96 351q0 -42 16 -78.5t43.5 -64t64 -43.5t78.5 -16t78.5 16t64 43.5t43.5 64
t16 78.5t-16 78.5t-43.5 64t-64 43.5t-78.5 16t-78.5 -16t-64 -43.5t-43.5 -64t-16 -78.5zM298 205q-30 0 -57 11.5t-46.5 31t-31 46.5t-11.5 57t11.5 57t31 46.5t46.5 31t57 11.5t56 -11t46 -31l-26 -26q-15 14 -34 22.5t-42 8.5t-42.5 -8.5t-34.5 -23.5t-23.5 -35
t-8.5 -42q0 -23 8.5 -42.5t23.5 -34.5t34.5 -23.5t42.5 -8.5t42 8.5t34 22.5l26 -26q-20 -20 -46 -31t-56 -11z" />
    <glyph glyph-name="guillemotleft" unicode="&#xab;" horiz-adv-x="530" 
d="M252 466l37 -38l-174 -174l174 -174l-38 -37l-211 211zM438 466l37 -38l-174 -174l174 -174l-38 -37l-211 211z" />
    <glyph glyph-name="logicalnot" unicode="&#xac;" horiz-adv-x="619" 
d="M486 285h-414v60h474v-230h-60v170z" />
    <glyph glyph-name="registered" unicode="&#xae;" horiz-adv-x="596" 
d="M58 351q0 49 19 93t51.5 76.5t76 51.5t93.5 19q49 0 93 -19t76.5 -51.5t51.5 -76.5t19 -93q0 -50 -19 -93.5t-51.5 -76t-76.5 -51.5t-93 -19q-50 0 -93.5 19t-76 51.5t-51.5 76t-19 93.5zM96 351q0 -42 16 -78.5t43.5 -64t64 -43.5t78.5 -16t78.5 16t64 43.5t43.5 64
t16 78.5t-16 78.5t-43.5 64t-64 43.5t-78.5 16t-78.5 -16t-64 -43.5t-43.5 -64t-16 -78.5zM307 313h-63v-100h-38v278h116q37 0 63 -26t26 -63q0 -30 -18 -53.5t-45 -31.5l57 -104h-43zM322 351q21 0 36 15t15 36t-15 36t-36 15h-78v-102h78z" />
    <glyph glyph-name="macron" unicode="&#xaf;" horiz-adv-x="574" 
d="M172 641h230v-57h-230v57z" />
    <glyph glyph-name="degree" unicode="&#xb0;" horiz-adv-x="308" 
d="M96 612q0 -24 17 -41t41 -17t41 17t17 41t-17 41t-41 17t-41 -17t-17 -41zM46 612q0 22 8.5 42t23 34.5t34 23t42.5 8.5q22 0 42 -8.5t34.5 -23t23 -34.5t8.5 -42q0 -23 -8.5 -42.5t-23 -34t-34.5 -23t-42 -8.5q-23 0 -42.5 8.5t-34 23t-23 34t-8.5 42.5z" />
    <glyph glyph-name="plusminus" unicode="&#xb1;" horiz-adv-x="512" 
d="M84 455h142v142h60v-142h142v-60h-142v-142h-60v142h-142v60zM84 163h344v-60h-344v60z" />
    <glyph glyph-name="uni00B2" unicode="&#xb2;" horiz-adv-x="349" 
d="M279 444v-42h-214v42q0 25 12.5 43t32 31t41.5 23.5t41.5 22t32 25.5t12.5 35q0 20 -17.5 34.5t-43.5 14.5t-43.5 -14.5t-17.5 -34.5h-42q0 19 8 35.5t22 29t33 19.5t40 7t40 -7t33 -19.5t22 -29t8 -35.5q0 -29 -12.5 -48.5t-32 -33.5t-41.5 -24.5t-41.5 -21t-32 -23
t-12.5 -29.5h172z" />
    <glyph glyph-name="uni00B3" unicode="&#xb3;" horiz-adv-x="322" 
d="M150 577h10q26 0 43.5 14t17.5 34t-17.5 34t-43.5 14t-43.5 -14t-17.5 -34h-42q0 38 30 64t73 26t73 -26t30 -64q0 -21 -10 -39t-27 -30q17 -13 27 -30.5t10 -38.5q0 -38 -30 -64t-73 -26t-73 26t-30 64h42q0 -20 17.5 -34t43.5 -14t43.5 14t17.5 34q0 18 -17.5 33
t-43.5 15h-10v42z" />
    <glyph glyph-name="acute" unicode="&#xb4;" horiz-adv-x="376" 
d="M87 607l176 98l26 -51l-177 -91z" />
    <glyph glyph-name="mu" unicode="&#xb5;" horiz-adv-x="553" 
d="M71 500h60v-305q0 -30 11.5 -56.5t31 -46t46 -31t56.5 -11.5q29 0 55.5 11.5t46.5 31t31.5 46t11.5 56.5v305h60v-500h-60v62q-27 -33 -67 -52.5t-88 -19.5q-40 0 -74.5 14.5t-60.5 39.5v-254h-60v710z" />
    <glyph glyph-name="paragraph" unicode="&#xb6;" horiz-adv-x="608" 
d="M467 650h-60v-650h-60v245h-77q-48 0 -90.5 18t-74 49.5t-50 74t-18.5 90.5t18.5 90.5t50 74t74 50t90.5 18.5h257v-710h-60v650zM347 650h-77q-36 0 -67.5 -13.5t-55 -37t-37 -55t-13.5 -67.5t13.5 -67t37 -54.5t55 -37t67.5 -13.5h77v345z" />
    <glyph glyph-name="periodcentered" unicode="&#xb7;" horiz-adv-x="198" 
d="M67 395h64v-80h-64v80z" />
    <glyph glyph-name="cedilla" unicode="&#xb8;" horiz-adv-x="550" 
d="M230 -5h40v-36h55v-29q0 -20 -7.5 -37t-20.5 -30t-30.5 -20.5t-36.5 -7.5v40q21 0 37 14.5t18 35.5h-55v70z" />
    <glyph glyph-name="uni00B9" unicode="&#xb9;" horiz-adv-x="208" 
d="M92 710h42v-308h-42v250l-23 -23l-29 29z" />
    <glyph glyph-name="ordmasculine" unicode="&#xba;" horiz-adv-x="358" 
d="M49 556q0 33 9.5 62t26.5 50.5t41 34t53 12.5t53 -12.5t41 -34t26.5 -50.5t9.5 -62t-9.5 -62t-26.5 -50.5t-41 -34t-53 -12.5t-53 12.5t-41 34t-26.5 50.5t-9.5 62zM93 556q0 -49 23 -83t63 -34t63 34t23 83t-23 83t-63 34t-63 -34t-23 -83z" />
    <glyph glyph-name="guillemotright" unicode="&#xbb;" horiz-adv-x="530" 
d="M490 254l-211 -211l-38 37l174 174l-174 174l37 38zM304 254l-211 -211l-38 37l174 174l-174 174l37 38z" />
    <glyph glyph-name="onequarter" unicode="&#xbc;" horiz-adv-x="799" 
d="M149 710h42v-308h-42v250l-23 -23l-29 29zM722 715l31 -31l-689 -689l-31 31zM635 308h42v-194h56v-42h-56v-72h-42v72h-150v42zM538 114h97v126z" />
    <glyph glyph-name="onehalf" unicode="&#xbd;" horiz-adv-x="799" 
d="M149 710h42v-308h-42v250l-23 -23l-29 29zM722 715l31 -31l-689 -689l-31 31zM720 42v-42h-214v42q0 26 12.5 43.5t32 30.5t41.5 23.5t41.5 22t32 25.5t12.5 35q0 20 -17.5 34.5t-43.5 14.5t-43.5 -14.5t-17.5 -34.5h-42q0 19 8 35.5t22 29t33 19.5t40 7t40 -7t33 -19.5
t22 -29t8 -35.5q0 -29 -12.5 -48.5t-32 -33.5t-41.5 -24.5t-41.5 -21t-32 -23t-12.5 -29.5h172z" />
    <glyph glyph-name="threequarters" unicode="&#xbe;" horiz-adv-x="798" 
d="M728 715l31 -31l-689 -689l-31 31zM641 308h42v-194h56v-42h-56v-72h-42v72h-150v42zM544 114h97v126zM162 577h10q26 0 43.5 14t17.5 34t-17.5 34t-43.5 14t-43.5 -14t-17.5 -34h-42q0 38 30 64t73 26t73 -26t30 -64q0 -21 -10 -39t-27 -30q17 -13 27 -30.5t10 -38.5
q0 -38 -30 -64t-73 -26t-73 26t-30 64h42q0 -20 17.5 -34t43.5 -14t43.5 14t17.5 34q0 18 -17.5 33t-43.5 15h-10v42z" />
    <glyph glyph-name="questiondown" unicode="&#xbf;" horiz-adv-x="584" 
d="M369.013 630.005h-63.9961v79.9951h63.9961v-79.9951zM367.014 530.011q0 -53.9961 -19.999 -90.9941t-49.9971 -63.9961t-64.9961 -46.4971t-64.9961 -39.998q-29.998 -20.498 -49.9971 -44.9971q-19.999 -24.498 -19.999 -59.4961q0 -28.998 15.499 -54.4971
q15.499 -25.498 41.498 -44.4971q25.998 -18.999 61.9961 -29.998t75.9951 -10.999q43.9971 0 79.9951 10.999t61.4961 29.998q25.499 18.999 39.498 44.4971q13.999 25.499 13.999 54.4971h59.9961q0 -40.998 -18.499 -77.4951q-18.498 -36.498 -52.4961 -63.4961
q-33.998 -26.999 -80.4951 -42.998t-103.494 -15.999q-52.9961 0 -99.4941 15.999q-46.4971 15.999 -80.9951 42.998q-34.4971 26.998 -54.4961 63.4961q-19.999 36.4971 -19.999 77.4951q0 45.9971 19.999 77.9951t49.9971 55.9961q29.998 23.999 64.9961 43.998
q34.998 19.998 64.9961 42.9971t49.9961 52.4971q19.999 29.498 19.999 72.4951h59.9971z" />
    <glyph glyph-name="Agrave" unicode="&#xc0;" 
d="M310 710h70l299 -710h-65l-88 208h-363l-87 -208h-65zM189 268h312l-156 370zM421 773l-177 91l26 51l176 -98z" />
    <glyph glyph-name="Aacute" unicode="&#xc1;" 
d="M310 710h70l299 -710h-65l-88 208h-363l-87 -208h-65zM189 268h312l-156 370zM244 817l176 98l26 -51l-177 -91z" />
    <glyph glyph-name="Acircumflex" unicode="&#xc2;" 
d="M310 710h70l299 -710h-65l-88 208h-363l-87 -208h-65zM189 268h312l-156 370zM460 773l-115 74l-115 -74l-25 42l140 98l140 -98z" />
    <glyph glyph-name="Atilde" unicode="&#xc3;" 
d="M310 710h70l299 -710h-65l-88 208h-363l-87 -208h-65zM189 268h312l-156 370zM241 851q18 18 34.5 25t32 5.5t29.5 -9.5t27 -21q10 -10 21 -12.5t26 12.5l30 30l38 -38l-30 -30q-18 -18 -34.5 -25t-32 -5.5t-29.5 9.5t-27 21q-10 10 -21 12.5t-26 -12.5l-30 -30l-38 38z
" />
    <glyph glyph-name="Adieresis" unicode="&#xc4;" 
d="M310 710h70l299 -710h-65l-88 208h-363l-87 -208h-65zM189 268h312l-156 370zM237 857h66v-73h-66v73zM387 857h66v-73h-66v73z" />
    <glyph glyph-name="Aring" unicode="&#xc5;" 
d="M310 710h70l299 -710h-65l-88 208h-363l-87 -208h-65zM189 268h312l-156 370zM308 830q0 -15 11 -26t26 -11t26 11t11 26t-11 26t-26 11t-26 -11t-11 -26zM258 830q0 36 25.5 61.5t61.5 25.5t61.5 -25.5t25.5 -61.5t-25.5 -61.5t-61.5 -25.5t-61.5 25.5t-25.5 61.5z" />
    <glyph glyph-name="Ccedilla" unicode="&#xc7;" horiz-adv-x="711" 
d="M678 89q-48 -46 -108.5 -73t-130.5 -31v-28h55v-29q0 -20 -7.5 -37t-20.5 -30t-30.5 -20.5t-36.5 -7.5v40q21 0 37 14.5t18 35.5h-55v62q-74 4 -138 34t-111 80t-74.5 115.5t-27.5 140.5q0 77 29 144.5t79.5 118t118 79.5t144.5 29q76 0 142 -28t117 -77l-42 -43
q-42 42 -97.5 65t-119.5 23q-65 0 -121.5 -24.5t-98.5 -66.5t-66.5 -99t-24.5 -121q0 -65 24.5 -121.5t66.5 -98.5t98.5 -66.5t121.5 -24.5q64 0 119.5 23t97.5 65z" />
    <glyph glyph-name="Egrave" unicode="&#xc8;" horiz-adv-x="649" 
d="M97 710h496v-60h-436v-265h406v-60h-406v-265h436v-60h-496v710zM421 773l-177 91l26 51l176 -98z" />
    <glyph glyph-name="Eacute" unicode="&#xc9;" horiz-adv-x="649" 
d="M97 710h496v-60h-436v-265h406v-60h-406v-265h436v-60h-496v710zM244 817l176 98l26 -51l-177 -91z" />
    <glyph glyph-name="Ecircumflex" unicode="&#xca;" horiz-adv-x="649" 
d="M97 710h496v-60h-436v-265h406v-60h-406v-265h436v-60h-496v710zM460 773l-115 74l-115 -74l-25 42l140 98l140 -98z" />
    <glyph glyph-name="Edieresis" unicode="&#xcb;" horiz-adv-x="649" 
d="M97 710h496v-60h-436v-265h406v-60h-406v-265h436v-60h-496v710zM237 857h66v-73h-66v73zM387 857h66v-73h-66v73z" />
    <glyph glyph-name="Igrave" unicode="&#xcc;" horiz-adv-x="254" 
d="M97 710h60v-710h-60v710zM203 773l-177 91l26 51l176 -98z" />
    <glyph glyph-name="Iacute" unicode="&#xcd;" horiz-adv-x="254" 
d="M97 710h60v-710h-60v710zM26 817l176 98l26 -51l-177 -91z" />
    <glyph glyph-name="Icircumflex" unicode="&#xce;" horiz-adv-x="254" 
d="M97 710h60v-710h-60v710zM242 773l-115 74l-115 -74l-25 42l140 98l140 -98z" />
    <glyph glyph-name="Idieresis" unicode="&#xcf;" horiz-adv-x="254" 
d="M97 710h60v-710h-60v710zM19 857h66v-73h-66v73zM169 857h66v-73h-66v73z" />
    <glyph glyph-name="Eth" unicode="&#xd0;" horiz-adv-x="784" 
d="M0 385h120v325h261q73 0 138 -28t113 -76t76 -113t28 -138q0 -74 -28 -138.5t-76 -112.5t-113 -76t-138 -28h-261v325h-120v60zM180 650v-265h120v-60h-120v-265h201q61 0 115 23t94 63t63 94t23 115t-23 115t-63 94t-94 63t-115 23h-201z" />
    <glyph glyph-name="Ntilde" unicode="&#xd1;" horiz-adv-x="776" 
d="M157 0h-60v710h60l462 -611v611h60v-710h-60l-462 611v-611zM284 851q18 18 34.5 25t32 5.5t29.5 -9.5t27 -21q10 -10 21 -12.5t26 12.5l30 30l38 -38l-30 -30q-18 -18 -34.5 -25t-32 -5.5t-29.5 9.5t-27 21q-10 10 -21 12.5t-26 -12.5l-30 -30l-38 38z" />
    <glyph glyph-name="Ograve" unicode="&#xd2;" horiz-adv-x="838" 
d="M48 355q0 77 29 144.5t79.5 118t118 79.5t144.5 29t144.5 -29t118 -79.5t79.5 -118t29 -144.5t-29 -144.5t-79.5 -118t-118 -79.5t-144.5 -29t-144.5 29t-118 79.5t-79.5 118t-29 144.5zM108 355q0 -65 24.5 -121.5t66.5 -98.5t98.5 -66.5t121.5 -24.5q64 0 121 24.5
t99 66.5t66.5 98.5t24.5 121.5q0 64 -24.5 121t-66.5 99t-99 66.5t-121 24.5q-65 0 -121.5 -24.5t-98.5 -66.5t-66.5 -99t-24.5 -121zM495 773l-177 91l26 51l176 -98z" />
    <glyph glyph-name="Oacute" unicode="&#xd3;" horiz-adv-x="838" 
d="M48 355q0 77 29 144.5t79.5 118t118 79.5t144.5 29t144.5 -29t118 -79.5t79.5 -118t29 -144.5t-29 -144.5t-79.5 -118t-118 -79.5t-144.5 -29t-144.5 29t-118 79.5t-79.5 118t-29 144.5zM108 355q0 -65 24.5 -121.5t66.5 -98.5t98.5 -66.5t121.5 -24.5q64 0 121 24.5
t99 66.5t66.5 98.5t24.5 121.5q0 64 -24.5 121t-66.5 99t-99 66.5t-121 24.5q-65 0 -121.5 -24.5t-98.5 -66.5t-66.5 -99t-24.5 -121zM318 817l176 98l26 -51l-177 -91z" />
    <glyph glyph-name="Ocircumflex" unicode="&#xd4;" horiz-adv-x="838" 
d="M48 355q0 77 29 144.5t79.5 118t118 79.5t144.5 29t144.5 -29t118 -79.5t79.5 -118t29 -144.5t-29 -144.5t-79.5 -118t-118 -79.5t-144.5 -29t-144.5 29t-118 79.5t-79.5 118t-29 144.5zM108 355q0 -65 24.5 -121.5t66.5 -98.5t98.5 -66.5t121.5 -24.5q64 0 121 24.5
t99 66.5t66.5 98.5t24.5 121.5q0 64 -24.5 121t-66.5 99t-99 66.5t-121 24.5q-65 0 -121.5 -24.5t-98.5 -66.5t-66.5 -99t-24.5 -121zM534 773l-115 74l-115 -74l-25 42l140 98l140 -98z" />
    <glyph glyph-name="Otilde" unicode="&#xd5;" horiz-adv-x="838" 
d="M48 355q0 77 29 144.5t79.5 118t118 79.5t144.5 29t144.5 -29t118 -79.5t79.5 -118t29 -144.5t-29 -144.5t-79.5 -118t-118 -79.5t-144.5 -29t-144.5 29t-118 79.5t-79.5 118t-29 144.5zM108 355q0 -65 24.5 -121.5t66.5 -98.5t98.5 -66.5t121.5 -24.5q64 0 121 24.5
t99 66.5t66.5 98.5t24.5 121.5q0 64 -24.5 121t-66.5 99t-99 66.5t-121 24.5q-65 0 -121.5 -24.5t-98.5 -66.5t-66.5 -99t-24.5 -121zM315 851q18 18 34.5 25t32 5.5t29.5 -9.5t27 -21q10 -10 21 -12.5t26 12.5l30 30l38 -38l-30 -30q-18 -18 -34.5 -25t-32 -5.5t-29.5 9.5
t-27 21q-10 10 -21 12.5t-26 -12.5l-30 -30l-38 38z" />
    <glyph glyph-name="Odieresis" unicode="&#xd6;" horiz-adv-x="838" 
d="M48 355q0 77 29 144.5t79.5 118t118 79.5t144.5 29t144.5 -29t118 -79.5t79.5 -118t29 -144.5t-29 -144.5t-79.5 -118t-118 -79.5t-144.5 -29t-144.5 29t-118 79.5t-79.5 118t-29 144.5zM108 355q0 -65 24.5 -121.5t66.5 -98.5t98.5 -66.5t121.5 -24.5q64 0 121 24.5
t99 66.5t66.5 98.5t24.5 121.5q0 64 -24.5 121t-66.5 99t-99 66.5t-121 24.5q-65 0 -121.5 -24.5t-98.5 -66.5t-66.5 -99t-24.5 -121zM311 857h66v-73h-66v73zM461 857h66v-73h-66v73z" />
    <glyph glyph-name="multiply" unicode="&#xd7;" horiz-adv-x="472" 
d="M65 196l129 129l-129 129l42 42l129 -129l129 129l42 -42l-129 -129l129 -129l-42 -42l-129 129l-129 -129z" />
    <glyph glyph-name="Oslash" unicode="&#xd8;" horiz-adv-x="838" 
d="M48 355q0 77 29 144.5t79.5 118t118 79.5t144.5 29q52 0 102 -14l23 62l57 -21l-23 -63q47 -23 86 -57t67 -77.5t43.5 -94.5t15.5 -106q0 -77 -29 -144.5t-79.5 -118t-118 -79.5t-144.5 -29q-49 0 -94 12l-22 -60l-57 21l21 59q-48 22 -88.5 56.5t-69.5 78.5t-45 95.5
t-16 108.5zM108 355q0 -47 13 -90t37 -79.5t57 -65.5t73 -47l212 582q-41 11 -81 11q-65 0 -121.5 -24.5t-98.5 -66.5t-66.5 -99t-24.5 -121zM730 355q0 46 -12.5 88t-35.5 78t-55 64.5t-70 47.5l-212 -581q18 -4 36 -6t38 -2q64 0 121 24.5t99 66.5t66.5 98.5t24.5 121.5z
" />
    <glyph glyph-name="Ugrave" unicode="&#xd9;" horiz-adv-x="758" 
d="M610 710h60v-435q0 -60 -23 -113t-62.5 -92.5t-92.5 -62.5t-113 -23t-113 23t-92.5 62.5t-62.5 92.5t-23 113v435h60v-435q0 -48 18 -90t49.5 -73.5t73.5 -49.5t90 -18t90 18t73.5 49.5t49.5 73.5t18 90v435zM455 773l-177 91l26 51l176 -98z" />
    <glyph glyph-name="Uacute" unicode="&#xda;" horiz-adv-x="758" 
d="M610 710h60v-435q0 -60 -23 -113t-62.5 -92.5t-92.5 -62.5t-113 -23t-113 23t-92.5 62.5t-62.5 92.5t-23 113v435h60v-435q0 -48 18 -90t49.5 -73.5t73.5 -49.5t90 -18t90 18t73.5 49.5t49.5 73.5t18 90v435zM278 817l176 98l26 -51l-177 -91z" />
    <glyph glyph-name="Ucircumflex" unicode="&#xdb;" horiz-adv-x="758" 
d="M610 710h60v-435q0 -60 -23 -113t-62.5 -92.5t-92.5 -62.5t-113 -23t-113 23t-92.5 62.5t-62.5 92.5t-23 113v435h60v-435q0 -48 18 -90t49.5 -73.5t73.5 -49.5t90 -18t90 18t73.5 49.5t49.5 73.5t18 90v435zM494 773l-115 74l-115 -74l-25 42l140 98l140 -98z" />
    <glyph glyph-name="Udieresis" unicode="&#xdc;" horiz-adv-x="758" 
d="M610 710h60v-435q0 -60 -23 -113t-62.5 -92.5t-92.5 -62.5t-113 -23t-113 23t-92.5 62.5t-62.5 92.5t-23 113v435h60v-435q0 -48 18 -90t49.5 -73.5t73.5 -49.5t90 -18t90 18t73.5 49.5t49.5 73.5t18 90v435zM271 857h66v-73h-66v73zM421 857h66v-73h-66v73z" />
    <glyph glyph-name="Yacute" unicode="&#xdd;" horiz-adv-x="676" 
d="M368 296v-296h-60v296l-297 414h74l253 -353l253 353h74zM237 817l176 98l26 -51l-177 -91z" />
    <glyph glyph-name="Thorn" unicode="&#xde;" horiz-adv-x="674" 
d="M157 0h-60v710h60v-115h253q48 0 90.5 -18.5t74 -50t50 -74t18.5 -90.5t-18.5 -90.5t-50 -74t-74 -49.5t-90.5 -18h-253v-130zM157 190h253q36 0 67.5 13.5t55 37t37 54.5t13.5 67t-13.5 67.5t-37 55t-55 37t-67.5 13.5h-253v-345z" />
    <glyph glyph-name="germandbls" unicode="&#xdf;" horiz-adv-x="704" 
d="M76 0v517q0 40 15 75t41.5 61.5t61.5 41.5t75 15h160q40 0 75 -15t61.5 -41.5t41.5 -61.5t15 -75q0 -46 -19.5 -85t-51.5 -65q50 -23 81 -69.5t31 -105.5q0 -40 -15 -75t-41.5 -61t-61.5 -41t-75 -15h-69q-40 0 -75 15t-61.5 41t-41.5 61t-15 75h60q0 -27 10.5 -51
t28.5 -42t42.5 -28.5t51.5 -10.5h69q27 0 51.5 10.5t42.5 28.5t28.5 42t10.5 51t-10.5 51.5t-28.5 42.5t-42.5 28.5t-51.5 10.5h-41v60q27 0 51.5 10.5t42.5 28.5t28.5 42t10.5 51t-10.5 51.5t-28.5 42.5t-42.5 28.5t-51.5 10.5h-160q-27 0 -51.5 -10.5t-42.5 -28.5
t-28.5 -42.5t-10.5 -51.5v-517h-60z" />
    <glyph glyph-name="agrave" unicode="&#xe0;" horiz-adv-x="511" 
d="M380 67q-24 -35 -65.5 -56t-91.5 -21q-40 0 -75 12.5t-61.5 34.5t-41.5 51.5t-15 62.5q0 32 16.5 60.5t44.5 49.5t65.5 33t80.5 12h143v27q0 49 -36.5 83t-108.5 34q-37 0 -70 -9t-65 -32l-26 55q31 20 72 33t89 13t86.5 -14t64.5 -38t40 -56t14 -69v-333h-60v67z
M380 253h-143q-30 0 -57 -8t-47 -22t-31.5 -32.5t-11.5 -39.5t10.5 -39.5t28.5 -32t42.5 -21.5t51.5 -8q33 0 61.5 8t49.5 21.5t33.5 32t12.5 39.5v102zM321 563l-177 91l26 51l176 -98z" />
    <glyph glyph-name="aacute" unicode="&#xe1;" horiz-adv-x="511" 
d="M380 67q-24 -35 -65.5 -56t-91.5 -21q-40 0 -75 12.5t-61.5 34.5t-41.5 51.5t-15 62.5q0 32 16.5 60.5t44.5 49.5t65.5 33t80.5 12h143v27q0 49 -36.5 83t-108.5 34q-37 0 -70 -9t-65 -32l-26 55q31 20 72 33t89 13t86.5 -14t64.5 -38t40 -56t14 -69v-333h-60v67z
M380 253h-143q-30 0 -57 -8t-47 -22t-31.5 -32.5t-11.5 -39.5t10.5 -39.5t28.5 -32t42.5 -21.5t51.5 -8q33 0 61.5 8t49.5 21.5t33.5 32t12.5 39.5v102zM144 607l176 98l26 -51l-177 -91z" />
    <glyph glyph-name="acircumflex" unicode="&#xe2;" horiz-adv-x="511" 
d="M350 563l-115 74l-115 -74l-25 42l140 98l140 -98zM380 67q-24 -35 -65.5 -56t-91.5 -21q-40 0 -75 12.5t-61.5 34.5t-41.5 51.5t-15 62.5q0 32 16.5 60.5t44.5 49.5t65.5 33t80.5 12h143v27q0 49 -36.5 83t-108.5 34q-37 0 -70 -9t-65 -32l-26 55q31 20 72 33t89 13
t86.5 -14t64.5 -38t40 -56t14 -69v-333h-60v67zM380 253h-143q-30 0 -57 -8t-47 -22t-31.5 -32.5t-11.5 -39.5t10.5 -39.5t28.5 -32t42.5 -21.5t51.5 -8q33 0 61.5 8t49.5 21.5t33.5 32t12.5 39.5v102z" />
    <glyph glyph-name="atilde" unicode="&#xe3;" horiz-adv-x="511" 
d="M131 641q18 18 34.5 25t32 5.5t29.5 -9.5t27 -21q10 -10 21 -12.5t26 12.5l30 30l38 -38l-30 -30q-18 -18 -34.5 -25t-32 -5.5t-29.5 9.5t-27 21q-10 10 -21 12.5t-26 -12.5l-30 -30l-38 38zM380 67q-24 -35 -65.5 -56t-91.5 -21q-40 0 -75 12.5t-61.5 34.5t-41.5 51.5
t-15 62.5q0 32 16.5 60.5t44.5 49.5t65.5 33t80.5 12h143v27q0 49 -36.5 83t-108.5 34q-37 0 -70 -9t-65 -32l-26 55q31 20 72 33t89 13t86.5 -14t64.5 -38t40 -56t14 -69v-333h-60v67zM380 253h-143q-30 0 -57 -8t-47 -22t-31.5 -32.5t-11.5 -39.5t10.5 -39.5t28.5 -32
t42.5 -21.5t51.5 -8q33 0 61.5 8t49.5 21.5t33.5 32t12.5 39.5v102z" />
    <glyph glyph-name="adieresis" unicode="&#xe4;" horiz-adv-x="511" 
d="M127 647h66v-73h-66v73zM277 647h66v-73h-66v73zM380 67q-24 -35 -65.5 -56t-91.5 -21q-40 0 -75 12.5t-61.5 34.5t-41.5 51.5t-15 62.5q0 32 16.5 60.5t44.5 49.5t65.5 33t80.5 12h143v27q0 49 -36.5 83t-108.5 34q-37 0 -70 -9t-65 -32l-26 55q31 20 72 33t89 13
t86.5 -14t64.5 -38t40 -56t14 -69v-333h-60v67zM380 253h-143q-30 0 -57 -8t-47 -22t-31.5 -32.5t-11.5 -39.5t10.5 -39.5t28.5 -32t42.5 -21.5t51.5 -8q33 0 61.5 8t49.5 21.5t33.5 32t12.5 39.5v102z" />
    <glyph glyph-name="aring" unicode="&#xe5;" horiz-adv-x="511" 
d="M380 67q-24 -35 -65.5 -56t-91.5 -21q-40 0 -75 12.5t-61.5 34.5t-41.5 51.5t-15 62.5q0 32 16.5 60.5t44.5 49.5t65.5 33t80.5 12h143v27q0 49 -36.5 83t-108.5 34q-37 0 -70 -9t-65 -32l-26 55q31 20 72 33t89 13t86.5 -14t64.5 -38t40 -56t14 -69v-333h-60v67z
M380 253h-143q-30 0 -57 -8t-47 -22t-31.5 -32.5t-11.5 -39.5t10.5 -39.5t28.5 -32t42.5 -21.5t51.5 -8q33 0 61.5 8t49.5 21.5t33.5 32t12.5 39.5v102zM208 634q0 -15 11 -26t26 -11t26 11t11 26t-11 26t-26 11t-26 -11t-11 -26zM158 634q0 36 25.5 61.5t61.5 25.5
t61.5 -25.5t25.5 -61.5t-25.5 -61.5t-61.5 -25.5t-61.5 25.5t-25.5 61.5z" />
    <glyph glyph-name="ccedilla" unicode="&#xe7;" horiz-adv-x="501" 
d="M270 -9q-51 4 -93 25.5t-72 56t-46.5 80t-16.5 97.5q0 54 18.5 101.5t51.5 82.5t78.5 55.5t99.5 20.5q56 0 102 -21t79 -58l-45 -40q-25 27 -59.5 43t-76.5 16t-76.5 -16t-59.5 -43t-38.5 -63.5t-13.5 -77.5t13.5 -77.5t38.5 -63.5t59.5 -43t76.5 -16t76.5 15.5
t59.5 43.5l45 -40q-30 -34 -71 -54t-90 -24v-32h55v-29q0 -20 -7.5 -37t-20.5 -30t-30.5 -20.5t-36.5 -7.5v40q21 0 37 14.5t18 35.5h-55v66z" />
    <glyph glyph-name="egrave" unicode="&#xe8;" horiz-adv-x="532" 
d="M464 88q-34 -48 -84 -73t-110 -25q-50 0 -91.5 20.5t-72 55.5t-47.5 82.5t-17 101.5t17 101.5t47.5 82.5t72 55.5t91.5 20.5q49 0 91 -20.5t72.5 -55.5t47.5 -82.5t17 -101.5v-27h-395q4 -37 18.5 -68.5t37 -55t51 -36.5t60.5 -13q42 0 78.5 16t68.5 58zM270 450
q-34 0 -63 -13.5t-51 -36.5t-35.5 -55t-17.5 -68h333q-4 36 -17.5 68t-35 55t-50.5 36.5t-63 13.5zM346 563l-177 91l26 51l176 -98z" />
    <glyph glyph-name="eacute" unicode="&#xe9;" horiz-adv-x="532" 
d="M464 88q-34 -48 -84 -73t-110 -25q-50 0 -91.5 20.5t-72 55.5t-47.5 82.5t-17 101.5t17 101.5t47.5 82.5t72 55.5t91.5 20.5q49 0 91 -20.5t72.5 -55.5t47.5 -82.5t17 -101.5v-27h-395q4 -37 18.5 -68.5t37 -55t51 -36.5t60.5 -13q42 0 78.5 16t68.5 58zM270 450
q-34 0 -63 -13.5t-51 -36.5t-35.5 -55t-17.5 -68h333q-4 36 -17.5 68t-35 55t-50.5 36.5t-63 13.5zM169 607l176 98l26 -51l-177 -91z" />
    <glyph glyph-name="ecircumflex" unicode="&#xea;" horiz-adv-x="532" 
d="M464 88q-34 -48 -84 -73t-110 -25q-50 0 -91.5 20.5t-72 55.5t-47.5 82.5t-17 101.5t17 101.5t47.5 82.5t72 55.5t91.5 20.5q49 0 91 -20.5t72.5 -55.5t47.5 -82.5t17 -101.5v-27h-395q4 -37 18.5 -68.5t37 -55t51 -36.5t60.5 -13q42 0 78.5 16t68.5 58zM270 450
q-34 0 -63 -13.5t-51 -36.5t-35.5 -55t-17.5 -68h333q-4 36 -17.5 68t-35 55t-50.5 36.5t-63 13.5zM385 563l-115 74l-115 -74l-25 42l140 98l140 -98z" />
    <glyph glyph-name="edieresis" unicode="&#xeb;" horiz-adv-x="532" 
d="M464 88q-34 -48 -84 -73t-110 -25q-50 0 -91.5 20.5t-72 55.5t-47.5 82.5t-17 101.5t17 101.5t47.5 82.5t72 55.5t91.5 20.5q49 0 91 -20.5t72.5 -55.5t47.5 -82.5t17 -101.5v-27h-395q4 -37 18.5 -68.5t37 -55t51 -36.5t60.5 -13q42 0 78.5 16t68.5 58zM270 450
q-34 0 -63 -13.5t-51 -36.5t-35.5 -55t-17.5 -68h333q-4 36 -17.5 68t-35 55t-50.5 36.5t-63 13.5zM162 647h66v-73h-66v73zM312 647h66v-73h-66v73z" />
    <glyph glyph-name="igrave" unicode="&#xec;" horiz-adv-x="216" 
d="M184 563l-177 91l26 51l176 -98zM78 500h60v-500h-60v500z" />
    <glyph glyph-name="iacute" unicode="&#xed;" horiz-adv-x="216" 
d="M7 607l176 98l26 -51l-177 -91zM78 500h60v-500h-60v500z" />
    <glyph glyph-name="icircumflex" unicode="&#xee;" horiz-adv-x="216" 
d="M223 563l-115 74l-115 -74l-25 42l140 98l140 -98zM78 500h60v-500h-60v500z" />
    <glyph glyph-name="idieresis" unicode="&#xef;" horiz-adv-x="216" 
d="M0 647h66v-73h-66v73zM150 647h66v-73h-66v73zM78 500h60v-500h-60v500z" />
    <glyph glyph-name="ntilde" unicode="&#xf1;" horiz-adv-x="556" 
d="M76 500h60v-62q27 33 67 52.5t88 19.5q40 0 76 -15.5t62 -41.5t41.5 -62t15.5 -76v-315h-60v305q0 30 -11.5 56.5t-31 46t-46 31t-56.5 11.5q-29 0 -55.5 -11.5t-46.5 -31t-31.5 -46t-11.5 -56.5v-305h-60v500zM177 641q18 18 34.5 25t32 5.5t29.5 -9.5t27 -21
q10 -10 21 -12.5t26 12.5l30 30l38 -38l-30 -30q-18 -18 -34.5 -25t-32 -5.5t-29.5 9.5t-27 21q-10 10 -21 12.5t-26 -12.5l-30 -30l-38 38z" />
    <glyph glyph-name="ograve" unicode="&#xf2;" horiz-adv-x="578" 
d="M101 250q0 -41 13.5 -77.5t38.5 -63.5t59.5 -43t76.5 -16t76.5 16t59.5 43t38.5 63.5t13.5 77.5t-13.5 77.5t-38.5 63.5t-59.5 43t-76.5 16t-76.5 -16t-59.5 -43t-38.5 -63.5t-13.5 -77.5zM41 250q0 54 18.5 101.5t51.5 82.5t78.5 55.5t99.5 20.5t99.5 -20.5t78.5 -55.5
t51.5 -82.5t18.5 -101.5t-18.5 -101.5t-51.5 -82.5t-78.5 -55.5t-99.5 -20.5t-99.5 20.5t-78.5 55.5t-51.5 82.5t-18.5 101.5zM365 563l-177 91l26 51l176 -98z" />
    <glyph glyph-name="oacute" unicode="&#xf3;" horiz-adv-x="578" 
d="M101 250q0 -41 13.5 -77.5t38.5 -63.5t59.5 -43t76.5 -16t76.5 16t59.5 43t38.5 63.5t13.5 77.5t-13.5 77.5t-38.5 63.5t-59.5 43t-76.5 16t-76.5 -16t-59.5 -43t-38.5 -63.5t-13.5 -77.5zM41 250q0 54 18.5 101.5t51.5 82.5t78.5 55.5t99.5 20.5t99.5 -20.5t78.5 -55.5
t51.5 -82.5t18.5 -101.5t-18.5 -101.5t-51.5 -82.5t-78.5 -55.5t-99.5 -20.5t-99.5 20.5t-78.5 55.5t-51.5 82.5t-18.5 101.5zM188 607l176 98l26 -51l-177 -91z" />
    <glyph glyph-name="ocircumflex" unicode="&#xf4;" horiz-adv-x="578" 
d="M101 250q0 -41 13.5 -77.5t38.5 -63.5t59.5 -43t76.5 -16t76.5 16t59.5 43t38.5 63.5t13.5 77.5t-13.5 77.5t-38.5 63.5t-59.5 43t-76.5 16t-76.5 -16t-59.5 -43t-38.5 -63.5t-13.5 -77.5zM41 250q0 54 18.5 101.5t51.5 82.5t78.5 55.5t99.5 20.5t99.5 -20.5t78.5 -55.5
t51.5 -82.5t18.5 -101.5t-18.5 -101.5t-51.5 -82.5t-78.5 -55.5t-99.5 -20.5t-99.5 20.5t-78.5 55.5t-51.5 82.5t-18.5 101.5zM404 563l-115 74l-115 -74l-25 42l140 98l140 -98z" />
    <glyph glyph-name="otilde" unicode="&#xf5;" horiz-adv-x="578" 
d="M101 250q0 -41 13.5 -77.5t38.5 -63.5t59.5 -43t76.5 -16t76.5 16t59.5 43t38.5 63.5t13.5 77.5t-13.5 77.5t-38.5 63.5t-59.5 43t-76.5 16t-76.5 -16t-59.5 -43t-38.5 -63.5t-13.5 -77.5zM41 250q0 54 18.5 101.5t51.5 82.5t78.5 55.5t99.5 20.5t99.5 -20.5t78.5 -55.5
t51.5 -82.5t18.5 -101.5t-18.5 -101.5t-51.5 -82.5t-78.5 -55.5t-99.5 -20.5t-99.5 20.5t-78.5 55.5t-51.5 82.5t-18.5 101.5zM185 641q18 18 34.5 25t32 5.5t29.5 -9.5t27 -21q10 -10 21 -12.5t26 12.5l30 30l38 -38l-30 -30q-18 -18 -34.5 -25t-32 -5.5t-29.5 9.5t-27 21
q-10 10 -21 12.5t-26 -12.5l-30 -30l-38 38z" />
    <glyph glyph-name="odieresis" unicode="&#xf6;" horiz-adv-x="578" 
d="M101 250q0 -41 13.5 -77.5t38.5 -63.5t59.5 -43t76.5 -16t76.5 16t59.5 43t38.5 63.5t13.5 77.5t-13.5 77.5t-38.5 63.5t-59.5 43t-76.5 16t-76.5 -16t-59.5 -43t-38.5 -63.5t-13.5 -77.5zM41 250q0 54 18.5 101.5t51.5 82.5t78.5 55.5t99.5 20.5t99.5 -20.5t78.5 -55.5
t51.5 -82.5t18.5 -101.5t-18.5 -101.5t-51.5 -82.5t-78.5 -55.5t-99.5 -20.5t-99.5 20.5t-78.5 55.5t-51.5 82.5t-18.5 101.5zM181 647h66v-73h-66v73zM331 647h66v-73h-66v73z" />
    <glyph glyph-name="divide" unicode="&#xf7;" horiz-adv-x="562" 
d="M72 348h418v-60h-418v60zM251 525h60v-94h-60v94zM251 205h60v-94h-60v94z" />
    <glyph glyph-name="oslash" unicode="&#xf8;" horiz-adv-x="578" 
d="M170 20q-60 32 -94.5 93.5t-34.5 136.5q0 54 18.5 101.5t51.5 82.5t78.5 55.5t99.5 20.5q15 0 29 -2t28 -5l13 35l57 -21l-13 -35q62 -32 98 -93.5t36 -138.5q0 -54 -18.5 -101.5t-51.5 -82.5t-78.5 -55.5t-99.5 -20.5q-31 0 -63 8l-12 -35l-57 21zM477 250q0 57 -25 103
t-70 72l-135 -371q17 -4 42 -4q42 0 76.5 16t59.5 43t38.5 63.5t13.5 77.5zM101 250q0 -56 24 -101.5t66 -71.5l134 369q-8 2 -17.5 3t-18.5 1q-42 0 -76.5 -16t-59.5 -43t-38.5 -63.5t-13.5 -77.5z" />
    <glyph glyph-name="ugrave" unicode="&#xf9;" horiz-adv-x="556" 
d="M480 0h-60v62q-27 -33 -67 -52.5t-88 -19.5q-41 0 -76.5 15.5t-61.5 41.5t-41.5 61.5t-15.5 76.5v315h60v-305q0 -30 11.5 -56.5t31 -46t46 -31t56.5 -11.5q29 0 55.5 11.5t46.5 31t31.5 46t11.5 56.5v305h60v-500zM351 563l-177 91l26 51l176 -98z" />
    <glyph glyph-name="uacute" unicode="&#xfa;" horiz-adv-x="556" 
d="M480 0h-60v62q-27 -33 -67 -52.5t-88 -19.5q-41 0 -76.5 15.5t-61.5 41.5t-41.5 61.5t-15.5 76.5v315h60v-305q0 -30 11.5 -56.5t31 -46t46 -31t56.5 -11.5q29 0 55.5 11.5t46.5 31t31.5 46t11.5 56.5v305h60v-500zM174 607l176 98l26 -51l-177 -91z" />
    <glyph glyph-name="ucircumflex" unicode="&#xfb;" horiz-adv-x="556" 
d="M480 0h-60v62q-27 -33 -67 -52.5t-88 -19.5q-41 0 -76.5 15.5t-61.5 41.5t-41.5 61.5t-15.5 76.5v315h60v-305q0 -30 11.5 -56.5t31 -46t46 -31t56.5 -11.5q29 0 55.5 11.5t46.5 31t31.5 46t11.5 56.5v305h60v-500zM390 563l-115 74l-115 -74l-25 42l140 98l140 -98z" />
    <glyph glyph-name="udieresis" unicode="&#xfc;" horiz-adv-x="556" 
d="M480 0h-60v62q-27 -33 -67 -52.5t-88 -19.5q-41 0 -76.5 15.5t-61.5 41.5t-41.5 61.5t-15.5 76.5v315h60v-305q0 -30 11.5 -56.5t31 -46t46 -31t56.5 -11.5q29 0 55.5 11.5t46.5 31t31.5 46t11.5 56.5v305h60v-500zM167 647h66v-73h-66v73zM317 647h66v-73h-66v73z" />
    <glyph glyph-name="yacute" unicode="&#xfd;" horiz-adv-x="512" 
d="M99 -150q18 1 35 8q14 6 29 18t25 35l35 88l-203 501h65l171 -421l171 421h65l-245 -603q-17 -40 -41.5 -61.5t-48.5 -31.5q-28 -12 -58 -14v60zM155 607l176 98l26 -51l-177 -91z" />
    <glyph glyph-name="thorn" unicode="&#xfe;" horiz-adv-x="578" 
d="M76 710h60v-302q31 47 77 74.5t100 27.5q46 0 86.5 -20.5t71 -55.5t48 -82.5t17.5 -101.5t-17.5 -101.5t-48 -82.5t-71 -55.5t-86.5 -20.5q-54 0 -100 27.5t-77 74.5v-302h-60v920zM313 450q-37 0 -70 -16t-57.5 -43t-38.5 -63.5t-14 -77.5t14 -77.5t38.5 -63.5t57.5 -43
t70 -16q34 0 63.5 16t51.5 43t35 63.5t13 77.5t-13 77.5t-35 63.5t-51.5 43t-63.5 16z" />
    <glyph glyph-name="ydieresis" unicode="&#xff;" horiz-adv-x="512" 
d="M99 -150q18 1 35 8q14 6 29 18t25 35l35 88l-203 501h65l171 -421l171 421h65l-245 -603q-17 -40 -41.5 -61.5t-48.5 -31.5q-28 -12 -58 -14v60zM148 647h66v-73h-66v73zM298 647h66v-73h-66v73z" />
    <glyph glyph-name="Amacron" unicode="&#x100;" 
d="M310 710h70l299 -710h-65l-88 208h-363l-87 -208h-65zM189 268h312l-156 370zM230 851h230v-57h-230v57z" />
    <glyph glyph-name="amacron" unicode="&#x101;" horiz-adv-x="511" 
d="M380 67q-24 -35 -65.5 -56t-91.5 -21q-40 0 -75 12.5t-61.5 34.5t-41.5 51.5t-15 62.5q0 32 16.5 60.5t44.5 49.5t65.5 33t80.5 12h143v27q0 49 -36.5 83t-108.5 34q-37 0 -70 -9t-65 -32l-26 55q31 20 72 33t89 13t86.5 -14t64.5 -38t40 -56t14 -69v-333h-60v67z
M380 253h-143q-30 0 -57 -8t-47 -22t-31.5 -32.5t-11.5 -39.5t10.5 -39.5t28.5 -32t42.5 -21.5t51.5 -8q33 0 61.5 8t49.5 21.5t33.5 32t12.5 39.5v102zM120 641h230v-57h-230v57z" />
    <glyph glyph-name="Abreve" unicode="&#x102;" 
d="M310 710h70l299 -710h-65l-88 208h-363l-87 -208h-65zM189 268h312l-156 370zM272 903q0 -30 21.5 -51.5t51.5 -21.5t51.5 21.5t21.5 51.5h60q0 -27 -10.5 -51.5t-28.5 -42.5t-42.5 -28.5t-51.5 -10.5t-51.5 10.5t-42.5 28.5t-28.5 42.5t-10.5 51.5h60v0z" />
    <glyph glyph-name="abreve" unicode="&#x103;" horiz-adv-x="511" 
d="M162 693q0 -30 21.5 -51.5t51.5 -21.5t51.5 21.5t21.5 51.5h60q0 -27 -10.5 -51.5t-28.5 -42.5t-42.5 -28.5t-51.5 -10.5t-51.5 10.5t-42.5 28.5t-28.5 42.5t-10.5 51.5h60v0zM380 67q-24 -35 -65.5 -56t-91.5 -21q-40 0 -75 12.5t-61.5 34.5t-41.5 51.5t-15 62.5
q0 32 16.5 60.5t44.5 49.5t65.5 33t80.5 12h143v27q0 49 -36.5 83t-108.5 34q-37 0 -70 -9t-65 -32l-26 55q31 20 72 33t89 13t86.5 -14t64.5 -38t40 -56t14 -69v-333h-60v67zM380 253h-143q-30 0 -57 -8t-47 -22t-31.5 -32.5t-11.5 -39.5t10.5 -39.5t28.5 -32t42.5 -21.5
t51.5 -8q33 0 61.5 8t49.5 21.5t33.5 32t12.5 39.5v102z" />
    <glyph glyph-name="Aogonek" unicode="&#x104;" 
d="M543 -155q0 35 15 64t33 49q21 24 48 42h-25l-88 208h-363l-87 -208h-65l299 710h70l299 -710q-29 -22 -51 -48q-19 -22 -33.5 -49.5t-11.5 -57.5q2 -23 17 -39t38 -16t37 9t26 22l26 -28q-5 -6 -13.5 -13t-20 -14t-25.5 -11.5t-30 -4.5q-20 0 -37 7.5t-30 20.5t-20.5 30
t-7.5 37zM189 268h312l-156 370z" />
    <glyph glyph-name="aogonek" unicode="&#x105;" horiz-adv-x="511" 
d="M380 67q-24 -35 -65.5 -56t-91.5 -21q-40 0 -75 12.5t-61.5 34.5t-41.5 51.5t-15 62.5q0 32 16.5 60.5t44.5 49.5t65.5 33t80.5 12h143v27q0 49 -36.5 83t-108.5 34q-37 0 -70 -9t-65 -32l-26 55q31 20 72 33t89 13t86.5 -14t64.5 -38t40 -56t14 -69v-333
q-29 -22 -51 -48q-19 -22 -33.5 -49.5t-11.5 -57.5q2 -23 17 -39t38 -16t37 9t26 22l26 -28q-5 -6 -13.5 -13t-20 -14t-25.5 -11.5t-30 -4.5q-20 0 -37 7.5t-30 20.5t-20.5 30t-7.5 37q0 35 15 64t33 49q21 24 48 42h-20v67zM380 253h-143q-30 0 -57 -8t-47 -22t-31.5 -32.5
t-11.5 -39.5t10.5 -39.5t28.5 -32t42.5 -21.5t51.5 -8q33 0 61.5 8t49.5 21.5t33.5 32t12.5 39.5v102z" />
    <glyph glyph-name="Cacute" unicode="&#x106;" horiz-adv-x="711" 
d="M678 89q-51 -49 -117 -77t-142 -28q-77 0 -144.5 29t-118 79.5t-79.5 118t-29 144.5t29 144.5t79.5 118t118 79.5t144.5 29q76 0 142 -28t117 -77l-42 -43q-42 42 -97.5 65t-119.5 23q-65 0 -121.5 -24.5t-98.5 -66.5t-66.5 -99t-24.5 -121q0 -65 24.5 -121.5t66.5 -98.5
t98.5 -66.5t121.5 -24.5q64 0 119.5 23t97.5 65l42 -43v0zM273 817l176 98l26 -51l-177 -91z" />
    <glyph glyph-name="cacute" unicode="&#x107;" horiz-adv-x="500" 
d="M470 69q-33 -37 -79 -58t-102 -21q-54 0 -99.5 20.5t-78.5 55.5t-51.5 82.5t-18.5 101.5t18.5 101.5t51.5 82.5t78.5 55.5t99.5 20.5q56 0 102 -21t79 -58l-45 -40q-25 27 -59.5 43t-76.5 16t-76.5 -16t-59.5 -43t-38.5 -63.5t-13.5 -77.5t13.5 -77.5t38.5 -63.5
t59.5 -43t76.5 -16t76.5 15.5t59.5 43.5l45 -40v0zM151 607l176 98l26 -51l-177 -91z" />
    <glyph glyph-name="Ccaron" unicode="&#x10c;" horiz-adv-x="711" 
d="M304 913l115 -74l115 74l25 -42l-140 -98l-140 98zM678 89q-51 -49 -117 -77t-142 -28q-77 0 -144.5 29t-118 79.5t-79.5 118t-29 144.5t29 144.5t79.5 118t118 79.5t144.5 29q76 0 142 -28t117 -77l-42 -43q-42 42 -97.5 65t-119.5 23q-65 0 -121.5 -24.5t-98.5 -66.5
t-66.5 -99t-24.5 -121q0 -65 24.5 -121.5t66.5 -98.5t98.5 -66.5t121.5 -24.5q64 0 119.5 23t97.5 65l42 -43v0z" />
    <glyph glyph-name="ccaron" unicode="&#x10d;" horiz-adv-x="500" 
d="M174 703l115 -74l115 74l25 -42l-140 -98l-140 98zM470 69q-33 -37 -79 -58t-102 -21q-54 0 -99.5 20.5t-78.5 55.5t-51.5 82.5t-18.5 101.5t18.5 101.5t51.5 82.5t78.5 55.5t99.5 20.5q56 0 102 -21t79 -58l-45 -40q-25 27 -59.5 43t-76.5 16t-76.5 -16t-59.5 -43
t-38.5 -63.5t-13.5 -77.5t13.5 -77.5t38.5 -63.5t59.5 -43t76.5 -16t76.5 15.5t59.5 43.5l45 -40v0z" />
    <glyph glyph-name="Dcaron" unicode="&#x10e;" horiz-adv-x="761" 
d="M97 710h261q73 0 138 -28t113 -76t76 -113t28 -138q0 -74 -28 -138.5t-76 -112.5t-113 -76t-138 -28h-261v710zM157 650v-590h201q61 0 115 23t94 63t63 94t23 115t-23 115t-63 94t-94 63t-115 23h-201zM200 913l115 -74l115 74l25 -42l-140 -98l-140 98z" />
    <glyph glyph-name="dcaron" unicode="&#x10f;" horiz-adv-x="588" 
d="M502 0h-60v92q-31 -47 -77 -74.5t-100 -27.5q-46 0 -86.5 20.5t-71 55.5t-48 82.5t-17.5 101.5t17.5 101.5t48 82.5t71 55.5t86.5 20.5q54 0 100 -27.5t77 -74.5v342h60v-750zM265 50q37 0 70 16t57.5 43t38.5 63.5t14 77.5t-14 77.5t-38.5 63.5t-57.5 43t-70 16
q-34 0 -63.5 -16t-51.5 -43t-35 -63.5t-13 -77.5t13 -77.5t35 -63.5t51.5 -43t63.5 -16zM582 790h64v-99q0 -26 -19 -45t-45 -19v37q10 0 17 7t7 17v22h-24v80z" />
    <glyph glyph-name="Dcroat" unicode="&#x110;" horiz-adv-x="789" 
d="M5 385h120v325h261q73 0 138 -28t113 -76t76 -113t28 -138q0 -74 -28 -138.5t-76 -112.5t-113 -76t-138 -28h-261v325h-120v60zM185 650v-265h120v-60h-120v-265h201q61 0 115 23t94 63t63 94t23 115t-23 115t-63 94t-94 63t-115 23h-201z" />
    <glyph glyph-name="dcroat" unicode="&#x111;" horiz-adv-x="578" 
d="M342 630h100v120h60v-120h100v-60h-100v-570h-60v92q-31 -47 -77 -74.5t-100 -27.5q-46 0 -86.5 20.5t-71 55.5t-48 82.5t-17.5 101.5t17.5 101.5t48 82.5t71 55.5t86.5 20.5q54 0 100 -27.5t77 -74.5v162h-100v60zM265 50q37 0 70 16t57.5 43t38.5 63.5t14 77.5
t-14 77.5t-38.5 63.5t-57.5 43t-70 16q-34 0 -63.5 -16t-51.5 -43t-35 -63.5t-13 -77.5t13 -77.5t35 -63.5t51.5 -43t63.5 -16z" />
    <glyph glyph-name="Emacron" unicode="&#x112;" horiz-adv-x="649" 
d="M97 710h496v-60h-436v-265h406v-60h-406v-265h436v-60h-496v710zM230 851h230v-57h-230v57z" />
    <glyph glyph-name="emacron" unicode="&#x113;" horiz-adv-x="532" 
d="M464 88q-34 -48 -84 -73t-110 -25q-50 0 -91.5 20.5t-72 55.5t-47.5 82.5t-17 101.5t17 101.5t47.5 82.5t72 55.5t91.5 20.5q49 0 91 -20.5t72.5 -55.5t47.5 -82.5t17 -101.5v-27h-395q4 -37 18.5 -68.5t37 -55t51 -36.5t60.5 -13q42 0 78.5 16t68.5 58zM270 450
q-34 0 -63 -13.5t-51 -36.5t-35.5 -55t-17.5 -68h333q-4 36 -17.5 68t-35 55t-50.5 36.5t-63 13.5zM155 641h230v-57h-230v57z" />
    <glyph glyph-name="Edotaccent" unicode="&#x116;" horiz-adv-x="649" 
d="M97 710h496v-60h-436v-265h406v-60h-406v-265h436v-60h-496v710zM312 851h66v-74h-66v74z" />
    <glyph glyph-name="edotaccent" unicode="&#x117;" horiz-adv-x="532" 
d="M464 88q-34 -48 -84 -73t-110 -25q-50 0 -91.5 20.5t-72 55.5t-47.5 82.5t-17 101.5t17 101.5t47.5 82.5t72 55.5t91.5 20.5q49 0 91 -20.5t72.5 -55.5t47.5 -82.5t17 -101.5v-27h-395q4 -37 18.5 -68.5t37 -55t51 -36.5t60.5 -13q42 0 78.5 16t68.5 58zM270 450
q-34 0 -63 -13.5t-51 -36.5t-35.5 -55t-17.5 -68h333q-4 36 -17.5 68t-35 55t-50.5 36.5t-63 13.5zM237 641h66v-74h-66v74z" />
    <glyph glyph-name="Eogonek" unicode="&#x118;" horiz-adv-x="649" 
d="M97 710h496v-60h-436v-265h406v-60h-406v-265h436v-60q-29 -22 -51 -48q-19 -22 -33.5 -49.5t-11.5 -57.5q2 -23 17 -39t38 -16t37 9t26 22l26 -28q-5 -6 -13.5 -13t-20 -14t-25.5 -11.5t-30 -4.5q-20 0 -37 7.5t-30 20.5t-20.5 30t-7.5 37q0 35 15 64t33 49q21 24 48 42
h-456v710z" />
    <glyph glyph-name="eogonek" unicode="&#x119;" horiz-adv-x="532" 
d="M464 88q-11 -15 -31.5 -44.5t-40 -64.5t-32.5 -71t-10 -63q2 -23 17 -39t38 -16t37 9t26 22l26 -28q-5 -6 -13.5 -13t-20 -14t-25.5 -11.5t-30 -4.5q-20 0 -37 7.5t-30 20.5t-20.5 30t-7.5 37t5.5 41.5t14 43.5t19.5 42.5t22 38.5q-23 -10 -48.5 -15.5t-52.5 -5.5
q-50 0 -91.5 20.5t-72 55.5t-47.5 82.5t-17 101.5t17 101.5t47.5 82.5t72 55.5t91.5 20.5q49 0 91 -20.5t72.5 -55.5t47.5 -82.5t17 -101.5v-27h-395q4 -37 18.5 -68.5t37 -55t51 -36.5t60.5 -13q42 0 78.5 16t68.5 58zM270 450q-34 0 -63 -13.5t-51 -36.5t-35.5 -55
t-17.5 -68h333q-4 36 -17.5 68t-35 55t-50.5 36.5t-63 13.5z" />
    <glyph glyph-name="Ecaron" unicode="&#x11a;" horiz-adv-x="649" 
d="M97 710h496v-60h-436v-265h406v-60h-406v-265h436v-60h-496v710zM230 913l115 -74l115 74l25 -42l-140 -98l-140 98z" />
    <glyph glyph-name="ecaron" unicode="&#x11b;" horiz-adv-x="532" 
d="M464 88q-34 -48 -84 -73t-110 -25q-50 0 -91.5 20.5t-72 55.5t-47.5 82.5t-17 101.5t17 101.5t47.5 82.5t72 55.5t91.5 20.5q49 0 91 -20.5t72.5 -55.5t47.5 -82.5t17 -101.5v-27h-395q4 -37 18.5 -68.5t37 -55t51 -36.5t60.5 -13q42 0 78.5 16t68.5 58zM270 450
q-34 0 -63 -13.5t-51 -36.5t-35.5 -55t-17.5 -68h333q-4 36 -17.5 68t-35 55t-50.5 36.5t-63 13.5zM155 703l115 -74l115 74l25 -42l-140 -98l-140 98z" />
    <glyph glyph-name="uni0122" unicode="&#x122;" horiz-adv-x="758" 
d="M387 -40h64v-99q0 -26 -19 -45t-45 -19v37q10 0 17 7t7 17v22h-24v80zM634 52q-46 -32 -100.5 -50t-114.5 -18q-77 0 -144.5 29t-118 79.5t-79.5 118t-29 144.5t29 144.5t79.5 118t118 79.5t144.5 29q76 0 142 -28t117 -77l-42 -43q-42 42 -97.5 65t-119.5 23
q-65 0 -121.5 -24.5t-98.5 -66.5t-66.5 -99t-24.5 -121q0 -65 24.5 -121.5t66.5 -98.5t98.5 -66.5t121.5 -24.5q63 0 118 22.5t97 63.5v185h-295v61h355v-376h-60v52z" />
    <glyph glyph-name="Itilde" unicode="&#x128;" horiz-adv-x="254" 
d="M97 710h60v-710h-60v710zM23 851q18 18 34.5 25t32 5.5t29.5 -9.5t27 -21q10 -10 21 -12.5t26 12.5l30 30l38 -38l-30 -30q-18 -18 -34.5 -25t-32 -5.5t-29.5 9.5t-27 21q-10 10 -21 12.5t-26 -12.5l-30 -30l-38 38z" />
    <glyph glyph-name="itilde" unicode="&#x129;" horiz-adv-x="216" 
d="M78 500h60v-500h-60v500zM4 641q18 18 34.5 25t32 5.5t29.5 -9.5t27 -21q10 -10 21 -12.5t26 12.5l30 30l38 -38l-30 -30q-18 -18 -34.5 -25t-32 -5.5t-29.5 9.5t-27 21q-10 10 -21 12.5t-26 -12.5l-30 -30l-38 38z" />
    <glyph glyph-name="Imacron" unicode="&#x12a;" horiz-adv-x="254" 
d="M97 710h60v-710h-60v710zM12 851h230v-57h-230v57z" />
    <glyph glyph-name="imacron" unicode="&#x12b;" horiz-adv-x="216" 
d="M78 500h60v-500h-60v500zM-7 641h230v-57h-230v57z" />
    <glyph glyph-name="Iogonek" unicode="&#x12e;" horiz-adv-x="254" 
d="M97 710h60v-710q-29 -22 -51 -48q-19 -22 -33.5 -49.5t-11.5 -57.5q2 -23 17 -39t38 -16t37 9t26 22l26 -28q-5 -6 -13.5 -13t-20 -14t-25.5 -11.5t-30 -4.5q-20 0 -37 7.5t-30 20.5t-20.5 30t-7.5 37q0 35 15 64t33 49q21 24 48 42h-20v710z" />
    <glyph glyph-name="iogonek" unicode="&#x12f;" horiz-adv-x="214" 
d="M1 -155q0 35 15 64t33 49q21 24 48 42h-20v500h60v-500q-29 -22 -51 -48q-19 -22 -33.5 -49.5t-11.5 -57.5q2 -23 17 -39t38 -16t37 9t26 22l26 -28q-5 -6 -13.5 -13t-20 -14t-25.5 -11.5t-30 -4.5q-20 0 -37 7.5t-30 20.5t-20.5 30t-7.5 37zM77 710h60v-100h-60v100z
" />
    <glyph glyph-name="dotlessi" unicode="&#x131;" horiz-adv-x="214" 
d="M77 500h60v-500h-60v500z" />
    <glyph glyph-name="uni0136" unicode="&#x136;" horiz-adv-x="653" 
d="M305 366l-148 -151v-215h-60v710h60v-410l402 410h83l-294 -300l294 -410h-74zM302 -40h64v-99q0 -26 -19 -45t-45 -19v37q10 0 17 7t7 17v22h-24v80z" />
    <glyph glyph-name="uni0137" unicode="&#x137;" horiz-adv-x="500" 
d="M239 242l-103 -107v-135h-60v750h60v-529l270 279h83l-207 -214l207 -286h-74zM230 -40h64v-99q0 -26 -19 -45t-45 -19v37q10 0 17 7t7 17v22h-24v80z" />
    <glyph glyph-name="kgreenlandic" unicode="&#x138;" horiz-adv-x="500" 
d="M239 242l-103 -107v-135h-60v500h60v-279l270 279h83l-207 -214l207 -286h-74z" />
    <glyph glyph-name="Lacute" unicode="&#x139;" horiz-adv-x="620" 
d="M97 710h60v-650h446v-60h-506v710zM67 817l176 98l26 -51l-177 -91z" />
    <glyph glyph-name="lacute" unicode="&#x13a;" horiz-adv-x="214" 
d="M77 750h60v-750h-60v750zM6 837l176 98l26 -51l-177 -91z" />
    <glyph glyph-name="uni013B" unicode="&#x13b;" horiz-adv-x="620" 
d="M97 710h60v-650h446v-60h-506v710zM318 -40h64v-99q0 -26 -19 -45t-45 -19v37q10 0 17 7t7 17v22h-24v80z" />
    <glyph glyph-name="uni013C" unicode="&#x13c;" horiz-adv-x="214" 
d="M77 750h60v-750h-60v750zM75 -40h64v-99q0 -26 -19 -45t-45 -19v37q10 0 17 7t7 17v22h-24v80z" />
    <glyph glyph-name="Lcaron" unicode="&#x13d;" horiz-adv-x="620" 
d="M97 710h60v-650h446v-60h-506v710zM237 790h64v-99q0 -26 -19 -45t-45 -19v37q10 0 17 7t7 17v22h-24v80z" />
    <glyph glyph-name="lcaron" unicode="&#x13e;" horiz-adv-x="223" 
d="M77 750h60v-750h-60v750zM217 790h64v-99q0 -26 -19 -45t-45 -19v37q10 0 17 7t7 17v22h-24v80z" />
    <glyph glyph-name="Lslash" unicode="&#x141;" horiz-adv-x="622" 
d="M22 273l77 38v399h60v-369l230 116v-64l-230 -116v-217h446v-60h-506v247l-77 -38v64z" />
    <glyph glyph-name="lslash" unicode="&#x142;" horiz-adv-x="250" 
d="M18 274l77 38v438h60v-408l77 38v-64l-77 -38v-278h-60v248l-77 -38v64z" />
    <glyph glyph-name="Nacute" unicode="&#x143;" horiz-adv-x="776" 
d="M157 0h-60v710h60l462 -611v611h60v-710h-60l-462 611v-611zM287 817l176 98l26 -51l-177 -91z" />
    <glyph glyph-name="nacute" unicode="&#x144;" horiz-adv-x="556" 
d="M76 500h60v-62q27 33 67 52.5t88 19.5q40 0 76 -15.5t62 -41.5t41.5 -62t15.5 -76v-315h-60v305q0 30 -11.5 56.5t-31 46t-46 31t-56.5 11.5q-29 0 -55.5 -11.5t-46.5 -31t-31.5 -46t-11.5 -56.5v-305h-60v500zM180 607l176 98l26 -51l-177 -91z" />
    <glyph glyph-name="uni0145" unicode="&#x145;" horiz-adv-x="776" 
d="M157 0h-60v710h60l462 -611v611h60v-710h-60l-462 611v-611zM356 -40h64v-99q0 -26 -19 -45t-45 -19v37q10 0 17 7t7 17v22h-24v80z" />
    <glyph glyph-name="uni0146" unicode="&#x146;" horiz-adv-x="556" 
d="M249 -40h64v-99q0 -26 -19 -45t-45 -19v37q10 0 17 7t7 17v22h-24v80zM76 500h60v-62q27 33 67 52.5t88 19.5q40 0 76 -15.5t62 -41.5t41.5 -62t15.5 -76v-315h-60v305q0 30 -11.5 56.5t-31 46t-46 31t-56.5 11.5q-29 0 -55.5 -11.5t-46.5 -31t-31.5 -46t-11.5 -56.5
v-305h-60v500z" />
    <glyph glyph-name="Ncaron" unicode="&#x147;" horiz-adv-x="776" 
d="M157 0h-60v710h60l462 -611v611h60v-710h-60l-462 611v-611zM273 913l115 -74l115 74l25 -42l-140 -98l-140 98z" />
    <glyph glyph-name="ncaron" unicode="&#x148;" horiz-adv-x="556" 
d="M76 500h60v-62q27 33 67 52.5t88 19.5q40 0 76 -15.5t62 -41.5t41.5 -62t15.5 -76v-315h-60v305q0 30 -11.5 56.5t-31 46t-46 31t-56.5 11.5q-29 0 -55.5 -11.5t-46.5 -31t-31.5 -46t-11.5 -56.5v-305h-60v500zM166 703l115 -74l115 74l25 -42l-140 -98l-140 98z" />
    <glyph glyph-name="Eng" unicode="&#x14a;" horiz-adv-x="776" 
d="M347 -94q20 -29 52 -45.5t70 -16.5q31 0 58.5 12t47.5 32t32 47.5t12 58.5v6l-462 611v-611h-60v710h60l462 -611v611h60v-716q0 -44 -16.5 -82t-45 -66.5t-67 -45t-81.5 -16.5q-51 0 -93.5 21.5t-71.5 58.5z" />
    <glyph glyph-name="eng" unicode="&#x14b;" horiz-adv-x="556" 
d="M76 500h60v-62q27 33 67 52.5t88 19.5q40 0 76 -15.5t62 -41.5t41.5 -62t15.5 -76v-370q0 -33 -12.5 -62t-34.5 -51t-51 -34.5t-62 -12.5v60q42 0 71 29t29 71v360q0 30 -11.5 56.5t-31 46t-46 31t-56.5 11.5q-29 0 -55.5 -11.5t-46.5 -31t-31.5 -46t-11.5 -56.5v-305
h-60v500z" />
    <glyph glyph-name="Omacron" unicode="&#x14c;" horiz-adv-x="838" 
d="M48 355q0 77 29 144.5t79.5 118t118 79.5t144.5 29t144.5 -29t118 -79.5t79.5 -118t29 -144.5t-29 -144.5t-79.5 -118t-118 -79.5t-144.5 -29t-144.5 29t-118 79.5t-79.5 118t-29 144.5zM108 355q0 -65 24.5 -121.5t66.5 -98.5t98.5 -66.5t121.5 -24.5q64 0 121 24.5
t99 66.5t66.5 98.5t24.5 121.5q0 64 -24.5 121t-66.5 99t-99 66.5t-121 24.5q-65 0 -121.5 -24.5t-98.5 -66.5t-66.5 -99t-24.5 -121zM304 851h230v-57h-230v57z" />
    <glyph glyph-name="omacron" unicode="&#x14d;" horiz-adv-x="578" 
d="M101 250q0 -41 13.5 -77.5t38.5 -63.5t59.5 -43t76.5 -16t76.5 16t59.5 43t38.5 63.5t13.5 77.5t-13.5 77.5t-38.5 63.5t-59.5 43t-76.5 16t-76.5 -16t-59.5 -43t-38.5 -63.5t-13.5 -77.5zM41 250q0 54 18.5 101.5t51.5 82.5t78.5 55.5t99.5 20.5t99.5 -20.5t78.5 -55.5
t51.5 -82.5t18.5 -101.5t-18.5 -101.5t-51.5 -82.5t-78.5 -55.5t-99.5 -20.5t-99.5 20.5t-78.5 55.5t-51.5 82.5t-18.5 101.5zM174 641h230v-57h-230v57z" />
    <glyph glyph-name="Ohungarumlaut" unicode="&#x150;" horiz-adv-x="838" 
d="M48 355q0 77 29 144.5t79.5 118t118 79.5t144.5 29t144.5 -29t118 -79.5t79.5 -118t29 -144.5t-29 -144.5t-79.5 -118t-118 -79.5t-144.5 -29t-144.5 29t-118 79.5t-79.5 118t-29 144.5zM108 355q0 -65 24.5 -121.5t66.5 -98.5t98.5 -66.5t121.5 -24.5q64 0 121 24.5
t99 66.5t66.5 98.5t24.5 121.5q0 64 -24.5 121t-66.5 99t-99 66.5t-121 24.5q-65 0 -121.5 -24.5t-98.5 -66.5t-66.5 -99t-24.5 -121zM310 795l106 156l47 -32l-111 -152zM466 795l106 156l47 -32l-111 -152z" />
    <glyph glyph-name="ohungarumlaut" unicode="&#x151;" horiz-adv-x="578" 
d="M101 250q0 -41 13.5 -77.5t38.5 -63.5t59.5 -43t76.5 -16t76.5 16t59.5 43t38.5 63.5t13.5 77.5t-13.5 77.5t-38.5 63.5t-59.5 43t-76.5 16t-76.5 -16t-59.5 -43t-38.5 -63.5t-13.5 -77.5zM41 250q0 54 18.5 101.5t51.5 82.5t78.5 55.5t99.5 20.5t99.5 -20.5t78.5 -55.5
t51.5 -82.5t18.5 -101.5t-18.5 -101.5t-51.5 -82.5t-78.5 -55.5t-99.5 -20.5t-99.5 20.5t-78.5 55.5t-51.5 82.5t-18.5 101.5zM184 585l106 156l47 -32l-111 -152zM340 585l106 156l47 -32l-111 -152z" />
    <glyph glyph-name="Racute" unicode="&#x154;" horiz-adv-x="693" 
d="M393 255h-236v-255h-60v710h318q47 0 88.5 -18t72.5 -49t49 -72.5t18 -88.5q0 -41 -14 -78t-38 -66.5t-57.5 -50t-72.5 -28.5l171 -259h-71zM157 650v-335h258q35 0 65.5 13t53.5 35.5t36 53t13 65.5t-13 65.5t-36 53.5t-53.5 36t-65.5 13h-258zM219 817l176 98l26 -51
l-177 -91z" />
    <glyph glyph-name="racute" unicode="&#x155;" horiz-adv-x="328" 
d="M76 500h60v-96q29 59 78.5 82.5t106.5 23.5v-60q-48 0 -83 -15t-57.5 -41t-33.5 -61t-11 -74v-259h-60v500zM97 607l176 98l26 -51l-177 -91z" />
    <glyph glyph-name="uni0156" unicode="&#x156;" horiz-adv-x="693" 
d="M393 255h-236v-255h-60v710h318q47 0 88.5 -18t72.5 -49t49 -72.5t18 -88.5q0 -41 -14 -78t-38 -66.5t-57.5 -50t-72.5 -28.5l171 -259h-71zM157 650v-335h258q35 0 65.5 13t53.5 35.5t36 53t13 65.5t-13 65.5t-36 53.5t-53.5 36t-65.5 13h-258zM312 -40h64v-99
q0 -26 -19 -45t-45 -19v37q10 0 17 7t7 17v22h-24v80z" />
    <glyph glyph-name="uni0157" unicode="&#x157;" horiz-adv-x="328" 
d="M76 500h60v-96q29 59 78.5 82.5t106.5 23.5v-60q-48 0 -83 -15t-57.5 -41t-33.5 -61t-11 -74v-259h-60v500zM74 -30h64v-99q0 -26 -19 -45t-45 -19v37q10 0 17 7t7 17v22h-24v80z" />
    <glyph glyph-name="Rcaron" unicode="&#x158;" horiz-adv-x="693" 
d="M393 255h-236v-255h-60v710h318q47 0 88.5 -18t72.5 -49t49 -72.5t18 -88.5q0 -41 -14 -78t-38 -66.5t-57.5 -50t-72.5 -28.5l171 -259h-71zM157 650v-335h258q35 0 65.5 13t53.5 35.5t36 53t13 65.5t-13 65.5t-36 53.5t-53.5 36t-65.5 13h-258zM195 913l115 -74l115 74
l25 -42l-140 -98l-140 98z" />
    <glyph glyph-name="rcaron" unicode="&#x159;" horiz-adv-x="328" 
d="M76 500h60v-96q29 59 78.5 82.5t106.5 23.5v-60q-48 0 -83 -15t-57.5 -41t-33.5 -61t-11 -74v-259h-60v500zM83 703l115 -74l115 74l25 -42l-140 -98l-140 98z" />
    <glyph glyph-name="Sacute" unicode="&#x15a;" horiz-adv-x="644" 
d="M519 531q0 28 -14 52.5t-40 43t-62.5 29t-81.5 10.5q-46 0 -83 -10.5t-62.5 -29t-39 -43t-13.5 -52.5q0 -37 20.5 -60.5t54 -38.5t76 -25.5t87.5 -21t87.5 -24t76 -35t54 -54.5t20.5 -82q0 -43 -19 -80.5t-55 -65.5t-87.5 -44t-116.5 -16q-61 0 -112 16t-88 44
t-57.5 65.5t-20.5 80.5h60q0 -30 16 -57t44.5 -46.5t68.5 -31t89 -11.5q52 0 93 11.5t68.5 31t42 46.5t14.5 57q0 38 -20.5 62t-54 40t-76 26.5t-87.5 21t-87.5 23.5t-76 34t-54 53.5t-20.5 80.5q0 40 18 76t51 62t81 41.5t108 15.5q57 0 104.5 -15.5t81.5 -41.5t53 -62
t19 -76h-60zM220 817l176 98l26 -51l-177 -91z" />
    <glyph glyph-name="sacute" unicode="&#x15b;" horiz-adv-x="485" 
d="M372 369q0 34 -32.5 57.5t-97.5 23.5t-97.5 -23.5t-32.5 -57.5q0 -31 24.5 -47t62 -25.5t80.5 -17t80.5 -23t62 -42.5t24.5 -75q0 -31 -14 -58t-40.5 -47.5t-64 -32t-85.5 -11.5t-85.5 11.5t-64 32t-40.5 47.5t-14 58h60q0 -19 11 -35.5t30 -28.5t45.5 -18.5t57.5 -6.5
t57.5 6.5t45.5 18.5t30 28.5t11 35.5q0 34 -24.5 50.5t-62 26.5t-80.5 17t-80.5 21t-62 40.5t-24.5 74.5q0 29 12 55t36 45t59.5 30t82.5 11t82.5 -11t59.5 -30t36 -45t12 -55h-60v0zM141 607l176 98l26 -51l-177 -91z" />
    <glyph glyph-name="Scedilla" unicode="&#x15e;" horiz-adv-x="644" 
d="M519 531q0 28 -14 52.5t-40 43t-62.5 29t-81.5 10.5q-46 0 -83 -10.5t-62.5 -29t-39 -43t-13.5 -52.5q0 -37 20.5 -60.5t54 -38.5t76 -25.5t87.5 -21t87.5 -24t76 -35t54 -54.5t20.5 -82q0 -41 -17.5 -77.5t-51 -64t-81.5 -44t-108 -19.5v-28h55v-29q0 -20 -7.5 -37
t-20.5 -30t-30.5 -20.5t-36.5 -7.5v40q21 0 37 14.5t18 35.5h-55v62q-57 3 -104.5 20t-81.5 44.5t-53 63.5t-19 77h60q0 -30 16 -57t44.5 -46.5t68.5 -31t89 -11.5q52 0 93 11.5t68.5 31t42 46.5t14.5 57q0 38 -20.5 62t-54 40t-76 26.5t-87.5 21t-87.5 23.5t-76 34
t-54 53.5t-20.5 80.5q0 40 18 76t51 62t81 41.5t108 15.5q57 0 104.5 -15.5t81.5 -41.5t53 -62t19 -76h-60z" />
    <glyph glyph-name="scedilla" unicode="&#x15f;" horiz-adv-x="485" 
d="M372 369q0 34 -32.5 57.5t-97.5 23.5t-97.5 -23.5t-32.5 -57.5q0 -31 24.5 -47t62 -25.5t80.5 -17t80.5 -23t62 -42.5t24.5 -75q0 -29 -12.5 -55t-36.5 -46t-58 -32.5t-77 -14.5v-32h55v-29q0 -20 -7.5 -37t-20.5 -30t-30.5 -20.5t-36.5 -7.5v40q21 0 37 14.5t18 35.5
h-55v66q-43 2 -77 14.5t-58 32.5t-36.5 46t-12.5 55h60q0 -19 11 -35.5t30 -28.5t45.5 -18.5t57.5 -6.5t57.5 6.5t45.5 18.5t30 28.5t11 35.5q0 34 -24.5 50.5t-62 26.5t-80.5 17t-80.5 21t-62 40.5t-24.5 74.5q0 29 12 55t36 45t59.5 30t82.5 11t82.5 -11t59.5 -30t36 -45
t12 -55h-60z" />
    <glyph glyph-name="Scaron" unicode="&#x160;" horiz-adv-x="644" 
d="M519 531q0 28 -14 52.5t-40 43t-62.5 29t-81.5 10.5q-46 0 -83 -10.5t-62.5 -29t-39 -43t-13.5 -52.5q0 -37 20.5 -60.5t54 -38.5t76 -25.5t87.5 -21t87.5 -24t76 -35t54 -54.5t20.5 -82q0 -43 -19 -80.5t-55 -65.5t-87.5 -44t-116.5 -16q-61 0 -112 16t-88 44
t-57.5 65.5t-20.5 80.5h60q0 -30 16 -57t44.5 -46.5t68.5 -31t89 -11.5q52 0 93 11.5t68.5 31t42 46.5t14.5 57q0 38 -20.5 62t-54 40t-76 26.5t-87.5 21t-87.5 23.5t-76 34t-54 53.5t-20.5 80.5q0 40 18 76t51 62t81 41.5t108 15.5q57 0 104.5 -15.5t81.5 -41.5t53 -62
t19 -76h-60zM206 913l115 -74l115 74l25 -42l-140 -98l-140 98z" />
    <glyph glyph-name="scaron" unicode="&#x161;" horiz-adv-x="485" 
d="M372 369q0 34 -32.5 57.5t-97.5 23.5t-97.5 -23.5t-32.5 -57.5q0 -31 24.5 -47t62 -25.5t80.5 -17t80.5 -23t62 -42.5t24.5 -75q0 -31 -14 -58t-40.5 -47.5t-64 -32t-85.5 -11.5t-85.5 11.5t-64 32t-40.5 47.5t-14 58h60q0 -19 11 -35.5t30 -28.5t45.5 -18.5t57.5 -6.5
t57.5 6.5t45.5 18.5t30 28.5t11 35.5q0 34 -24.5 50.5t-62 26.5t-80.5 17t-80.5 21t-62 40.5t-24.5 74.5q0 29 12 55t36 45t59.5 30t82.5 11t82.5 -11t59.5 -30t36 -45t12 -55h-60v0zM127 703l115 -74l115 74l25 -42l-140 -98l-140 98z" />
    <glyph glyph-name="uni0162" unicode="&#x162;" horiz-adv-x="636" 
d="M15 710h606v-60h-273v-650h-60v650h-273v60zM286 -40h64v-99q0 -26 -19 -45t-45 -19v37q10 0 17 7t7 17v22h-24v80z" />
    <glyph glyph-name="uni0163" unicode="&#x163;" horiz-adv-x="291" 
d="M162 500h100v-60h-100v-280q0 -42 29 -71t71 -29v-60q-33 0 -62 12.5t-51 34.5t-34.5 51t-12.5 62v280h-90v60h90v196l60 14v-210zM100 -50h64v-99q0 -26 -19 -45t-45 -19v37q10 0 17 7t7 17v22h-24v80z" />
    <glyph glyph-name="Tcaron" unicode="&#x164;" horiz-adv-x="636" 
d="M15 710h606v-60h-273v-650h-60v650h-273v60zM203 913l115 -74l115 74l25 -42l-140 -98l-140 98z" />
    <glyph glyph-name="tcaron" unicode="&#x165;" horiz-adv-x="291" 
d="M162 500h100v-60h-100v-280q0 -42 29 -71t71 -29v-60q-33 0 -62 12.5t-51 34.5t-34.5 51t-12.5 62v280h-90v60h90v196l60 14v-210zM242 790h64v-99q0 -26 -19 -45t-45 -19v37q10 0 17 7t7 17v22h-24v80z" />
    <glyph glyph-name="Tbar" unicode="&#x166;" horiz-adv-x="656" 
d="M25 710h606v-60h-273v-220h198v-60h-198v-370h-60v370h-198v60h198v220h-273v60z" />
    <glyph glyph-name="tbar" unicode="&#x167;" horiz-adv-x="297" 
d="M17 330h90v120h-90v60h90v186l60 14v-200h100v-60h-100v-120h100v-60h-100v-110q0 -42 29 -71t71 -29v-60q-33 0 -62 12.5t-51 34.5t-34.5 51t-12.5 62v110h-90v60z" />
    <glyph glyph-name="Utilde" unicode="&#x168;" horiz-adv-x="758" 
d="M610 710h60v-435q0 -60 -23 -113t-62.5 -92.5t-92.5 -62.5t-113 -23t-113 23t-92.5 62.5t-62.5 92.5t-23 113v435h60v-435q0 -48 18 -90t49.5 -73.5t73.5 -49.5t90 -18t90 18t73.5 49.5t49.5 73.5t18 90v435zM275 851q18 18 34.5 25t32 5.5t29.5 -9.5t27 -21
q10 -10 21 -12.5t26 12.5l30 30l38 -38l-30 -30q-18 -18 -34.5 -25t-32 -5.5t-29.5 9.5t-27 21q-10 10 -21 12.5t-26 -12.5l-30 -30l-38 38z" />
    <glyph glyph-name="utilde" unicode="&#x169;" horiz-adv-x="556" 
d="M480 0h-60v62q-27 -33 -67 -52.5t-88 -19.5q-41 0 -76.5 15.5t-61.5 41.5t-41.5 61.5t-15.5 76.5v315h60v-305q0 -30 11.5 -56.5t31 -46t46 -31t56.5 -11.5q29 0 55.5 11.5t46.5 31t31.5 46t11.5 56.5v305h60v-500zM171 641q18 18 34.5 25t32 5.5t29.5 -9.5t27 -21
q10 -10 21 -12.5t26 12.5l30 30l38 -38l-30 -30q-18 -18 -34.5 -25t-32 -5.5t-29.5 9.5t-27 21q-10 10 -21 12.5t-26 -12.5l-30 -30l-38 38z" />
    <glyph glyph-name="Umacron" unicode="&#x16a;" horiz-adv-x="758" 
d="M610 710h60v-435q0 -60 -23 -113t-62.5 -92.5t-92.5 -62.5t-113 -23t-113 23t-92.5 62.5t-62.5 92.5t-23 113v435h60v-435q0 -48 18 -90t49.5 -73.5t73.5 -49.5t90 -18t90 18t73.5 49.5t49.5 73.5t18 90v435zM264 851h230v-57h-230v57z" />
    <glyph glyph-name="umacron" unicode="&#x16b;" horiz-adv-x="556" 
d="M480 0h-60v62q-27 -33 -67 -52.5t-88 -19.5q-41 0 -76.5 15.5t-61.5 41.5t-41.5 61.5t-15.5 76.5v315h60v-305q0 -30 11.5 -56.5t31 -46t46 -31t56.5 -11.5q29 0 55.5 11.5t46.5 31t31.5 46t11.5 56.5v305h60v-500zM160 641h230v-57h-230v57z" />
    <glyph glyph-name="Uring" unicode="&#x16e;" horiz-adv-x="758" 
d="M610 710h60v-435q0 -60 -23 -113t-62.5 -92.5t-92.5 -62.5t-113 -23t-113 23t-92.5 62.5t-62.5 92.5t-23 113v435h60v-435q0 -48 18 -90t49.5 -73.5t73.5 -49.5t90 -18t90 18t73.5 49.5t49.5 73.5t18 90v435zM342 844q0 -15 11 -26t26 -11t26 11t11 26t-11 26t-26 11
t-26 -11t-11 -26zM292 844q0 36 25.5 61.5t61.5 25.5t61.5 -25.5t25.5 -61.5t-25.5 -61.5t-61.5 -25.5t-61.5 25.5t-25.5 61.5z" />
    <glyph glyph-name="uring" unicode="&#x16f;" horiz-adv-x="556" 
d="M480 0h-60v62q-27 -33 -67 -52.5t-88 -19.5q-41 0 -76.5 15.5t-61.5 41.5t-41.5 61.5t-15.5 76.5v315h60v-305q0 -30 11.5 -56.5t31 -46t46 -31t56.5 -11.5q29 0 55.5 11.5t46.5 31t31.5 46t11.5 56.5v305h60v-500zM238 634q0 -15 11 -26t26 -11t26 11t11 26t-11 26
t-26 11t-26 -11t-11 -26zM188 634q0 36 25.5 61.5t61.5 25.5t61.5 -25.5t25.5 -61.5t-25.5 -61.5t-61.5 -25.5t-61.5 25.5t-25.5 61.5z" />
    <glyph glyph-name="Uhungarumlaut" unicode="&#x170;" horiz-adv-x="758" 
d="M610 710h60v-435q0 -60 -23 -113t-62.5 -92.5t-92.5 -62.5t-113 -23t-113 23t-92.5 62.5t-62.5 92.5t-23 113v435h60v-435q0 -48 18 -90t49.5 -73.5t73.5 -49.5t90 -18t90 18t73.5 49.5t49.5 73.5t18 90v435zM245 795l106 156l47 -32l-111 -152zM401 795l106 156l47 -32
l-111 -152z" />
    <glyph glyph-name="uhungarumlaut" unicode="&#x171;" horiz-adv-x="556" 
d="M480 0h-60v62q-27 -33 -67 -52.5t-88 -19.5q-41 0 -76.5 15.5t-61.5 41.5t-41.5 61.5t-15.5 76.5v315h60v-305q0 -30 11.5 -56.5t31 -46t46 -31t56.5 -11.5q29 0 55.5 11.5t46.5 31t31.5 46t11.5 56.5v305h60v-500zM156 585l106 156l47 -32l-111 -152zM312 585l106 156
l47 -32l-111 -152z" />
    <glyph glyph-name="Uogonek" unicode="&#x172;" horiz-adv-x="758" 
d="M265 -155q0 25 8 47t20 40t25 31.5t24 22.5q-54 7 -100 32t-80.5 63.5t-54 88t-19.5 105.5v435h60v-435q0 -48 18 -90t49.5 -73.5t73.5 -49.5t90 -18t90 18t73.5 49.5t49.5 73.5t18 90v435h60v-435q0 -60 -22.5 -112.5t-62 -92t-92 -62.5t-112.5 -24q-11 -9 -25 -24
t-26 -33t-19.5 -39t-5.5 -43q2 -23 17 -39t38 -16t37 9t26 22l26 -28q-5 -6 -13.5 -13t-20 -14t-25.5 -11.5t-30 -4.5q-20 0 -37 7.5t-30 20.5t-20.5 30t-7.5 37z" />
    <glyph glyph-name="uogonek" unicode="&#x173;" horiz-adv-x="556" 
d="M344 -155q0 35 15 64t33 49q21 24 48 42h-20v62q-27 -33 -67 -52.5t-88 -19.5q-41 0 -76.5 15.5t-61.5 41.5t-41.5 61.5t-15.5 76.5v315h60v-305q0 -30 11.5 -56.5t31 -46t46 -31t56.5 -11.5q29 0 55.5 11.5t46.5 31t31.5 46t11.5 56.5v305h60v-500q-29 -22 -51 -48
q-19 -22 -33.5 -49.5t-11.5 -57.5q2 -23 17 -39t38 -16t37 9t26 22l26 -28q-5 -6 -13.5 -13t-20 -14t-25.5 -11.5t-30 -4.5q-20 0 -37 7.5t-30 20.5t-20.5 30t-7.5 37z" />
    <glyph glyph-name="Ydieresis" unicode="&#x178;" horiz-adv-x="676" 
d="M368 296v-296h-60v296l-297 414h74l253 -353l253 353h74zM230 857h66v-73h-66v73zM380 857h66v-73h-66v73z" />
    <glyph glyph-name="Zacute" unicode="&#x179;" horiz-adv-x="657" 
d="M45 710h572v-60l-503 -590h503v-60h-582v60l503 590h-493v60zM225 817l176 98l26 -51l-177 -91z" />
    <glyph glyph-name="zacute" unicode="&#x17a;" horiz-adv-x="481" 
d="M51 500h390v-60l-331 -380h331v-60h-410v60l332 380h-312v60zM135 607l176 98l26 -51l-177 -91z" />
    <glyph glyph-name="Zdotaccent" unicode="&#x17b;" horiz-adv-x="657" 
d="M45 710h572v-60l-503 -590h503v-60h-582v60l503 590h-493v60zM293 851h66v-74h-66v74z" />
    <glyph glyph-name="zdotaccent" unicode="&#x17c;" horiz-adv-x="481" 
d="M51 500h390v-60l-331 -380h331v-60h-410v60l332 380h-312v60zM203 641h66v-74h-66v74z" />
    <glyph glyph-name="Zcaron" unicode="&#x17d;" horiz-adv-x="657" 
d="M45 710h572v-60l-503 -590h503v-60h-582v60l503 590h-493v60zM211 913l115 -74l115 74l25 -42l-140 -98l-140 98z" />
    <glyph glyph-name="zcaron" unicode="&#x17e;" horiz-adv-x="481" 
d="M51 500h390v-60l-331 -380h331v-60h-410v60l332 380h-312v60zM121 703l115 -74l115 74l25 -42l-140 -98l-140 98z" />
    <glyph glyph-name="florin" unicode="&#x192;" horiz-adv-x="489" 
d="M249 -55q0 -33 -12.5 -62t-34.5 -51t-51 -34.5t-62 -12.5q-35 0 -65 14t-52 37l44 40q14 -14 33 -22.5t40 -8.5q42 0 71 29t29 71v425h-120v60h120v125q0 33 12.5 62t34.5 51t51 34.5t62 12.5q35 0 65 -14t52 -37l-44 -40q-14 14 -33 22.5t-40 8.5q-42 0 -71 -29t-29 -71
v-125h140v-60h-140v-425z" />
    <glyph glyph-name="circumflex" unicode="&#x2c6;" horiz-adv-x="446" 
d="M338 563l-115 74l-115 -74l-25 42l140 98l140 -98z" />
    <glyph glyph-name="caron" unicode="&#x2c7;" horiz-adv-x="446" 
d="M108 703l115 -74l115 74l25 -42l-140 -98l-140 98z" />
    <glyph glyph-name="breve" unicode="&#x2d8;" horiz-adv-x="446" 
d="M150 693q0 -30 21.5 -51.5t51.5 -21.5t51.5 21.5t21.5 51.5h60q0 -27 -10.5 -51.5t-28.5 -42.5t-42.5 -28.5t-51.5 -10.5t-51.5 10.5t-42.5 28.5t-28.5 42.5t-10.5 51.5h60v0z" />
    <glyph glyph-name="dotaccent" unicode="&#x2d9;" horiz-adv-x="170" 
d="M52 641h66v-74h-66v74z" />
    <glyph glyph-name="ring" unicode="&#x2da;" horiz-adv-x="360" 
d="M143 634q0 -15 11 -26t26 -11t26 11t11 26t-11 26t-26 11t-26 -11t-11 -26zM93 634q0 36 25.5 61.5t61.5 25.5t61.5 -25.5t25.5 -61.5t-25.5 -61.5t-61.5 -25.5t-61.5 25.5t-25.5 61.5z" />
    <glyph glyph-name="ogonek" unicode="&#x2db;" horiz-adv-x="280" 
d="M50 -155q0 35 15 64t33 49q21 24 48 42h40q-29 -22 -51 -48q-19 -22 -33.5 -49.5t-11.5 -57.5q2 -23 17 -39t38 -16t37 9t26 22l26 -28q-5 -6 -13.5 -13t-20 -14t-25.5 -11.5t-30 -4.5q-20 0 -37 7.5t-30 20.5t-20.5 30t-7.5 37z" />
    <glyph glyph-name="tilde" unicode="&#x2dc;" horiz-adv-x="430" 
d="M111 641q18 18 34.5 25t32 5.5t29.5 -9.5t27 -21q10 -10 21 -12.5t26 12.5l30 30l38 -38l-30 -30q-18 -18 -34.5 -25t-32 -5.5t-29.5 9.5t-27 21q-10 10 -21 12.5t-26 -12.5l-30 -30l-38 38z" />
    <glyph glyph-name="hungarumlaut" unicode="&#x2dd;" horiz-adv-x="429" 
d="M60 568l106 156l47 -32l-111 -152zM216 568l106 156l47 -32l-111 -152z" />
    <glyph glyph-name="pi" unicode="&#x3c0;" horiz-adv-x="596" 
d="M428 410h-260v-410h-60v410h-80v60h540v-60h-80v-410h-60v410z" />
    <glyph glyph-name="uni2009" unicode="&#x2009;" horiz-adv-x="214" 
 />
    <glyph glyph-name="uni200A" unicode="&#x200a;" horiz-adv-x="107" 
 />
    <glyph glyph-name="endash" unicode="&#x2013;" horiz-adv-x="546" 
d="M68 305h410v-60h-410v60z" />
    <glyph glyph-name="emdash" unicode="&#x2014;" horiz-adv-x="854" 
d="M72 305h710v-60h-710v60z" />
    <glyph glyph-name="quoteleft" unicode="&#x2018;" horiz-adv-x="197" 
d="M130 547h-64v99q0 26 19 45t45 19v-37q-10 0 -17 -7t-7 -17v-22h24v-80z" />
    <glyph glyph-name="quoteright" unicode="&#x2019;" horiz-adv-x="189" 
d="M68 710h64v-99q0 -26 -19 -45t-45 -19v37q10 0 17 7t7 17v22h-24v80z" />
    <glyph glyph-name="quotesinglbase" unicode="&#x201a;" horiz-adv-x="192" 
d="M66 160h64v-99q0 -26 -19 -45t-45 -19v37q10 0 17 7t7 17v22h-24v80z" />
    <glyph glyph-name="quotedblleft" unicode="&#x201c;" horiz-adv-x="307" 
d="M130 547h-64v99q0 26 19 45t45 19v-37q-10 0 -17 -7t-7 -17v-22h24v-80zM240 547h-64v99q0 26 19 45t45 19v-37q-10 0 -17 -7t-7 -17v-22h24v-80z" />
    <glyph glyph-name="quotedblright" unicode="&#x201d;" horiz-adv-x="299" 
d="M178 710h64v-99q0 -26 -19 -45t-45 -19v37q10 0 17 7t7 17v22h-24v80zM68 710h64v-99q0 -26 -19 -45t-45 -19v37q10 0 17 7t7 17v22h-24v80z" />
    <glyph glyph-name="quotedblbase" unicode="&#x201e;" horiz-adv-x="302" 
d="M176 160h64v-99q0 -26 -19 -45t-45 -19v37q10 0 17 7t7 17v22h-24v80zM66 160h64v-99q0 -26 -19 -45t-45 -19v37q10 0 17 7t7 17v22h-24v80z" />
    <glyph glyph-name="dagger" unicode="&#x2020;" horiz-adv-x="374" 
d="M55 590h102v120h60v-120h102v-60h-102v-230h-60v230h-102v60z" />
    <glyph glyph-name="daggerdbl" unicode="&#x2021;" horiz-adv-x="382" 
d="M59 180h102v350h-102v60h102v120h60v-120h102v-60h-102v-350h102v-60h-102v-120h-60v120h-102v60z" />
    <glyph glyph-name="bullet" unicode="&#x2022;" horiz-adv-x="308" 
d="M94 355q0 25 17.5 42.5t42.5 17.5t42.5 -17.5t17.5 -42.5t-17.5 -42.5t-42.5 -17.5t-42.5 17.5t-17.5 42.5z" />
    <glyph glyph-name="ellipsis" unicode="&#x2026;" horiz-adv-x="566" 
d="M67 80h64v-80h-64v80zM251 80h64v-80h-64v80zM435 80h64v-80h-64v80z" />
    <glyph glyph-name="perthousand" unicode="&#x2030;" horiz-adv-x="1066" 
d="M51 580q0 27 10 50.5t28 41.5t41.5 28t50.5 10t50.5 -10t41.5 -28t28 -41.5t10 -50.5t-10 -50.5t-28 -41.5t-41.5 -28t-50.5 -10t-50.5 10t-41.5 28t-28 41.5t-10 50.5zM111 580q0 -29 20.5 -49.5t49.5 -20.5t49.5 20.5t20.5 49.5t-20.5 49.5t-49.5 20.5t-49.5 -20.5
t-20.5 -49.5zM444 130q0 27 10 50.5t28 41.5t41.5 28t50.5 10t50.5 -10t41.5 -28t28 -41.5t10 -50.5t-10 -50.5t-28 -41.5t-41.5 -28t-50.5 -10t-50.5 10t-41.5 28t-28 41.5t-10 50.5zM504 130q0 -29 20.5 -49.5t49.5 -20.5t49.5 20.5t20.5 49.5t-20.5 49.5t-49.5 20.5
t-49.5 -20.5t-20.5 -49.5zM638 710h79l-600 -710h-79zM771 130q0 27 10 50.5t28 41.5t41.5 28t50.5 10t50.5 -10t41.5 -28t28 -41.5t10 -50.5t-10 -50.5t-28 -41.5t-41.5 -28t-50.5 -10t-50.5 10t-41.5 28t-28 41.5t-10 50.5zM831 130q0 -29 20.5 -49.5t49.5 -20.5
t49.5 20.5t20.5 49.5t-20.5 49.5t-49.5 20.5t-49.5 -20.5t-20.5 -49.5z" />
    <glyph glyph-name="guilsinglleft" unicode="&#x2039;" horiz-adv-x="344" 
d="M252 466l37 -38l-174 -174l174 -174l-38 -37l-211 211z" />
    <glyph glyph-name="guilsinglright" unicode="&#x203a;" horiz-adv-x="344" 
d="M304 254l-211 -211l-38 37l174 174l-174 174l37 38z" />
    <glyph glyph-name="fraction" unicode="&#x2044;" horiz-adv-x="714" 
d="M686 715l31 -31l-689 -689l-31 31z" />
    <glyph glyph-name="Euro" unicode="&#x20ac;" horiz-adv-x="667" 
d="M572 579q-30 41 -73.5 64t-101.5 23q-44 0 -80.5 -14t-64.5 -39.5t-48 -60.5t-31 -77h286v-60h-297q-3 -30 -3 -60q0 -32 3 -60h297v-60h-286q11 -42 31 -77t48 -60.5t64.5 -39.5t80.5 -14q58 0 101.5 23t73.5 64l46 -37q-38 -51 -93.5 -80.5t-127.5 -29.5
q-57 0 -103.5 18.5t-82.5 52t-61 79.5t-38 101h-67v60h57q-3 28 -3 60q0 30 3 60h-57v60h67q13 55 38 101t61 79.5t82.5 52t103.5 18.5q72 0 127.5 -29.5t93.5 -80.5l-46 -37v0z" />
    <glyph glyph-name="trademark" unicode="&#x2122;" horiz-adv-x="686" 
d="M349 611v-195h-40v294h40l108 -246l108 246h40v-294h-40v195l-86 -195h-44zM42 710h234v-40h-97v-254h-40v254h-97v40z" />
    <glyph glyph-name="minus" unicode="&#x2212;" horiz-adv-x="546" 
d="M71 355h404v-60h-404v60z" />
    <glyph glyph-name="glyph4" 
d="M535 188h-192l-79 -188h-65l79 188h-123l-79 -188h-65l299 710h70l299 -710h-65zM181 248h122l103 244l-61 146zM368 248h141l-70 167z" />
    <glyph glyph-name="glyph5" 
d="M535 188h-123l79 -188h-65l-79 188h-192l-79 -188h-65l299 710h70l299 -710h-65zM283 492l103 -244h123l-164 390zM181 248h140l-70 166z" />
    <glyph glyph-name="A.ss10" 
d="M497 277l-117 -277h-70l-117 277l-117 -277h-65l299 710h70l299 -710h-65zM225 355l120 -283l119 283l-119 283z" />
    <glyph glyph-name="glyph7" 
d="M240 196q0 22 8 41t22.5 33t33.5 22.5t41 8.5t41 -8.5t33 -22.5t22.5 -33t8.5 -41t-8.5 -41t-22.5 -33.5t-33 -22.5t-41 -8t-41 8t-33.5 22.5t-22.5 33.5t-8 41zM76 0h-65l299 710h70l299 -710h-65l-269 638zM290 196q0 -23 16 -39t39 -16t39 16t16 39t-16 39t-39 16
t-39 -16t-16 -39z" />
    <glyph glyph-name="glyph8" 
d="M345 121l52 -121h-104zM76 0h-65l299 710h70l299 -710h-65l-269 638z" />
    <glyph glyph-name="glyph9" 
d="M76 0h-65l299 710h70l299 -710h-65l-269 638zM202 0l143 340l143 -340h-65l-78 186l-78 -186h-65z" />
    <glyph glyph-name="glyph10" 
d="M11 0l299 710h70l299 -710h-668zM101 60h487l-243 578zM202 127l143 340l143 -340h-286zM292 187h106l-53 126z" />
    <glyph glyph-name="A.ss05" horiz-adv-x="680" 
d="M517 208h-354l-92 -208h-65l334 757l334 -757h-65zM189 268h301l-150 340z" />
    <glyph glyph-name="A.ss08" 
d="M539 178h-388l-75 -178h-65l299 710h70l299 -710h-65zM227 358h236l-118 280zM176 238h338l-26 60h-286z" />
    <glyph glyph-name="A.ss02" 
d="M11 0l299 710h70l299 -710h-65l-119 281l-419 -281h-65zM117 97l355 239l-127 302z" />
    <glyph glyph-name="glyph14" 
d="M614 0l-419 281l-119 -281h-65l299 710h70l299 -710h-65zM345 638l-127 -302l355 -239z" />
    <glyph glyph-name="glyph15" 
d="M315 567l-239 -567h-65l299 710h70l299 -710h-65l-239 567v-567h-60v567z" />
    <glyph glyph-name="glyph16" 
d="M576 245l103 -245h-65l-78 185h-382l-78 -185h-65l103 245h462zM310 710h70l109 -260h-288zM291 510h108l-54 128z" />
    <glyph glyph-name="A.ss04" 
d="M189 268h377l113 -268h-65l-88 208h-363l-87 -208h-65l299 710h65z" />
    <glyph glyph-name="glyph18" 
d="M11 0l299 710h70l299 -710h-65q-35 54 -106.5 87.5t-162.5 33.5t-162.5 -33.5t-106.5 -87.5h-65zM129 127q45 26 100 40t116 14t115.5 -14t99.5 -40l-215 511z" />
    <glyph glyph-name="glyph19" 
d="M11 0l299 710h70l299 -710h-668zM539 176h-389l-49 -116h487zM175 236h339l-49 116h-241zM250 412h190l-95 226z" />
    <glyph glyph-name="B.ss06" horiz-adv-x="733" 
d="M97 0v710h353q40 0 75 -15t61.5 -41.5t41.5 -61.5t15 -75q0 -46 -19.5 -85t-51.5 -65q50 -23 81 -69.5t31 -105.5q0 -40 -15 -75t-41.5 -61t-61.5 -41t-75 -15h-394zM277 325v-265h214q27 0 51.5 10.5t42.5 28.5t28.5 42t10.5 51t-10.5 51.5t-28.5 42.5t-42.5 28.5
t-51.5 10.5h-214zM277 650v-265h173q27 0 51.5 10.5t42.5 28.5t28.5 42t10.5 51t-10.5 51.5t-28.5 42.5t-42.5 28.5t-51.5 10.5h-173zM157 60h60v265h-60v-265zM157 385h60v265h-60v-265z" />
    <glyph glyph-name="glyph32" horiz-adv-x="753" 
d="M491 710q40 0 75 -15t61.5 -41.5t41.5 -61.5t15 -75q0 -52 -24.5 -94.5t-64.5 -68.5q40 -26 64.5 -68.5t24.5 -93.5q0 -40 -15 -75t-41.5 -61t-61.5 -41t-75 -15h-394v710h394zM298 192q0 51 24 93.5t65 68.5q-41 26 -65 68.5t-24 94.5q0 38 14 72.5t38 60.5h-193v-590
h193q-25 26 -38.5 59.5t-13.5 72.5zM491 325q-27 0 -51.5 -10.5t-42.5 -28.5t-28.5 -42.5t-10.5 -51.5t10.5 -51t28.5 -42t42.5 -28.5t51.5 -10.5t51.5 10.5t42.5 28.5t28.5 42t10.5 51t-10.5 51.5t-28.5 42.5t-42.5 28.5t-51.5 10.5zM491 650q-27 0 -51.5 -10.5
t-42.5 -28.5t-28.5 -42.5t-10.5 -51.5t10.5 -51t28.5 -42t42.5 -28.5t51.5 -10.5t51.5 10.5t42.5 28.5t28.5 42t10.5 51t-10.5 51.5t-28.5 42.5t-42.5 28.5t-51.5 10.5z" />
    <glyph glyph-name="B.ss09" horiz-adv-x="733" 
d="M97 0v710h353q40 0 75 -15t61.5 -41.5t41.5 -61.5t15 -75q0 -46 -19.5 -85t-51.5 -65q50 -23 81 -69.5t31 -105.5q0 -40 -15 -75t-41.5 -61t-61.5 -41t-75 -15h-394zM200 325l251 -265h40q27 0 51.5 10.5t42.5 28.5t28.5 42t10.5 51t-10.5 51.5t-28.5 42.5t-42.5 28.5
t-51.5 10.5h-291zM200 650l251 -265q27 0 51 10.5t42 28.5t28.5 42t10.5 51t-10.5 51.5t-28.5 42.5t-42.5 28.5t-51.5 10.5h-250zM157 284v-224h212zM157 385h212l-212 224v-224z" />
    <glyph glyph-name="glyph34" horiz-adv-x="733" 
d="M97 0v710h353q40 0 75 -15t61.5 -41.5t41.5 -61.5t15 -75q0 -46 -19.5 -85t-51.5 -65q50 -23 81 -69.5t31 -105.5q0 -40 -15 -75t-41.5 -61t-61.5 -41t-75 -15h-394zM489 325l-250 -265h252q27 0 51.5 10.5t42.5 28.5t28.5 42t10.5 51t-10.5 51.5t-28.5 42.5t-42.5 28.5
t-51.5 10.5h-2zM239 650l246 -261q42 12 70 47t28 81q0 27 -10.5 51.5t-28.5 42.5t-42.5 28.5t-51.5 10.5h-211zM407 325h-250v-265zM157 385h250l-250 265v-265z" />
    <glyph glyph-name="glyph35" horiz-adv-x="733" 
d="M97 710h353q40 0 75 -15t61.5 -41.5t41.5 -61.5t15 -75q0 -46 -19.5 -85t-51.5 -65q50 -23 81 -69.5t31 -105.5q0 -40 -15 -75t-41.5 -61t-61.5 -41t-75 -15h-394v710zM157 325v-103h463q-10 45 -46 74t-83 29h-334zM491 60q47 0 83 28.5t46 73.5h-463v-102h334zM157 650
v-103h422q-10 45 -46 74t-83 29h-293zM450 385q47 0 83 28.5t46 73.5h-422v-102h293z" />
    <glyph glyph-name="B.ss04" horiz-adv-x="733" 
d="M97 325v385h353q40 0 75 -15t61.5 -41.5t41.5 -61.5t15 -75q0 -46 -19.5 -85t-51.5 -65q50 -23 81 -69.5t31 -105.5q0 -40 -15 -75t-41.5 -61t-61.5 -41t-75 -15h-394v60h394q27 0 51.5 10.5t42.5 28.5t28.5 42t10.5 51t-10.5 51.5t-28.5 42.5t-42.5 28.5t-51.5 10.5
h-394zM157 650v-265h293q27 0 51.5 10.5t42.5 28.5t28.5 42t10.5 51t-10.5 51.5t-28.5 42.5t-42.5 28.5t-51.5 10.5h-293z" />
    <glyph glyph-name="glyph37" horiz-adv-x="733" 
d="M97 710h353q40 0 75 -15t61.5 -41.5t41.5 -61.5t15 -75q0 -46 -19.5 -85t-51.5 -65q50 -23 81 -69.5t31 -105.5q0 -40 -15 -75t-41.5 -61t-61.5 -41t-75 -15h-394v710zM450 385q27 0 51.5 10.5t42.5 28.5t28.5 42t10.5 51t-10.5 51.5t-28.5 42.5t-42.5 28.5t-51.5 10.5
h-293v-590h334q27 0 51.5 10.5t42.5 28.5t28.5 42t10.5 51t-10.5 51.5t-28.5 42.5t-42.5 28.5t-51.5 10.5h-41v60z" />
    <glyph glyph-name="glyph38" horiz-adv-x="733" 
d="M97 710h353q40 0 75 -15t61.5 -41.5t41.5 -61.5t15 -75q0 -46 -19.5 -85t-51.5 -65q50 -23 81 -69.5t31 -105.5q0 -40 -15 -75t-41.5 -61t-61.5 -41t-75 -15h-394v710zM157 60h233v590h-233v-590zM450 60h41q27 0 51.5 10.5t42.5 28.5t28.5 42t10.5 51t-10.5 51.5
t-28.5 42.5t-42.5 28.5t-51.5 10.5h-41v-265zM583 517q0 27 -10.5 51.5t-28.5 42.5t-42.5 28.5t-51.5 10.5v-265q27 0 51.5 10.5t42.5 28.5t28.5 42t10.5 51z" />
    <glyph glyph-name="glyph39" horiz-adv-x="733" 
d="M369 385l-251 265h-21v60h353q40 0 75 -15t61.5 -41.5t41.5 -61.5t15 -75q0 -46 -19.5 -85t-51.5 -65q50 -23 81 -69.5t31 -105.5q0 -40 -15 -75t-41.5 -61t-61.5 -41t-75 -15h-394v385h272zM200 325l251 -265h40q27 0 51.5 10.5t42.5 28.5t28.5 42t10.5 51t-10.5 51.5
t-28.5 42.5t-42.5 28.5t-51.5 10.5h-291zM200 650l251 -265q27 0 51 10.5t42 28.5t28.5 42t10.5 51t-10.5 51.5t-28.5 42.5t-42.5 28.5t-51.5 10.5h-250zM157 284v-224h212z" />
    <glyph glyph-name="glyph40" horiz-adv-x="733" 
d="M97 0v710h353q40 0 75 -15t61.5 -41.5t41.5 -61.5t15 -75q0 -46 -19.5 -85t-51.5 -65q50 -23 81 -69.5t31 -105.5q0 -40 -15 -75t-41.5 -61t-61.5 -41t-75 -15h-394zM392 325v-265h99q27 0 51.5 10.5t42.5 28.5t28.5 42t10.5 51t-10.5 51.5t-28.5 42.5t-42.5 28.5
t-51.5 10.5h-99zM157 385h175v265h-175v-265zM157 60h175v265h-175v-265zM392 650v-265h58q27 0 51.5 10.5t42.5 28.5t28.5 42t10.5 51t-10.5 51.5t-28.5 42.5t-42.5 28.5t-51.5 10.5h-58z" />
    <glyph glyph-name="glyph42" horiz-adv-x="707" 
d="M678 89q-51 -49 -117 -77t-142 -28q-77 0 -144.5 29t-118 79.5t-79.5 118t-29 144.5t29 144.5t79.5 118t118 79.5t144.5 29q76 0 142 -28t117 -77l-483 -483q43 -44 100.5 -69t123.5 -25q64 0 119.5 23t97.5 65zM419 666q-65 0 -121.5 -24.5t-98.5 -66.5t-66.5 -99
t-24.5 -121q0 -48 13 -90.5t37 -79.5l431 431q-37 24 -79.5 37t-90.5 13z" />
    <glyph glyph-name="C.ss10" horiz-adv-x="707" 
d="M678 621l-42 -43q-42 42 -97.5 65t-119.5 23q-66 0 -123.5 -25t-100.5 -70l483 -482q-51 -49 -117 -77t-142 -28q-77 0 -144.5 29t-118 79.5t-79.5 118t-29 144.5t29 144.5t79.5 118t118 79.5t144.5 29q76 0 142 -28t117 -77zM108 355q0 -65 24.5 -121.5t66.5 -98.5
t98.5 -66.5t121.5 -24.5q48 0 90.5 13t79.5 37l-431 431q-24 -37 -37 -80t-13 -90z" />
    <glyph glyph-name="glyph44" horiz-adv-x="705" 
d="M678 89q-51 -49 -117 -77t-142 -28q-77 0 -144.5 29t-118 79.5t-79.5 118t-29 144.5t29 144.5t79.5 118t118 79.5t144.5 29q76 0 142 -28t117 -77l-266 -266zM419 44q48 0 90.5 13t79.5 37l-219 219l-175 -175q43 -44 100.5 -69t123.5 -25zM419 666q-66 0 -123.5 -25
t-100.5 -70l175 -174l219 219q-37 24 -79.5 37t-90.5 13zM108 355q0 -48 13 -90.5t37 -79.5l170 170l-170 170q-24 -37 -37 -80t-13 -90z" />
    <glyph glyph-name="glyph45" horiz-adv-x="736" 
d="M636 544h-465q-30 -40 -46.5 -87.5t-16.5 -101.5t16.5 -102t46.5 -87h465l63 -55q-51 -59 -123 -93t-157 -34q-77 0 -144.5 29t-118 79.5t-79.5 118t-29 144.5t29 144.5t79.5 118t118 79.5t144.5 29q85 0 157 -34t123 -93zM419 666q-53 0 -100.5 -16.5t-86.5 -45.5h373
q-39 29 -86 45.5t-100 16.5zM419 44q53 0 100.5 16t86.5 46h-374q39 -29 86.5 -45.5t100.5 -16.5z" />
    <glyph glyph-name="C.ss07" horiz-adv-x="713" 
d="M678 89q-51 -49 -117 -77t-142 -28q-77 0 -144.5 29t-118 79.5t-79.5 118t-29 144.5t29 144.5t79.5 118t118 79.5t144.5 29q76 0 142 -28t117 -77l-42 -43q-42 42 -97.5 65t-119.5 23q-45 0 -87 -12t-77 -35v-529q35 -22 77 -34t87 -12q64 0 119.5 23t97.5 65zM108 355
q0 -63 23 -118.5t64 -97.5v432q-41 -42 -64 -97.5t-23 -118.5z" />
    <glyph glyph-name="C.ss08" horiz-adv-x="707" 
d="M678 89q-51 -49 -117 -77t-142 -28q-77 0 -144.5 29t-118 79.5t-79.5 118t-29 144.5t29 144.5t79.5 118t118 79.5t144.5 29q76 0 142 -28t117 -77l-42 -43q-42 42 -97.5 65t-119.5 23q-65 0 -121.5 -24.5t-98.5 -66.5t-66.5 -99t-24.5 -121q0 -65 24.5 -121.5t66.5 -98.5
t98.5 -66.5t121.5 -24.5q64 0 119.5 23t97.5 65zM593 177q-34 -33 -78.5 -52t-95.5 -19t-96.5 19.5t-79.5 53.5t-53.5 79.5t-19.5 96.5t19.5 96.5t53.5 79.5t79.5 53.5t96.5 19.5t95.5 -19t78.5 -52l-42 -43q-26 25 -60 39.5t-72 14.5q-39 0 -73.5 -15t-60 -40.5t-40.5 -60
t-15 -73.5t15 -73.5t40.5 -60t60 -40.5t73.5 -15q38 0 72 14.5t60 39.5z" />
    <glyph glyph-name="C.ss03" horiz-adv-x="709" 
d="M678 89q-51 -49 -117 -77t-142 -28q-77 0 -144.5 29t-118 79.5t-79.5 118t-29 144.5t29 144.5t79.5 118t118 79.5t144.5 29q76 0 142 -28t117 -77l-42 -43q-42 42 -97.5 65t-119.5 23q-65 0 -121.5 -24.5t-98.5 -66.5t-66.5 -99t-24.5 -121q0 -65 24.5 -121.5t66.5 -98.5
t98.5 -66.5t121.5 -24.5q64 0 119.5 23t97.5 65zM359 355q0 -25 17.5 -42.5t42.5 -17.5t42.5 17.5t17.5 42.5t-17.5 42.5t-42.5 17.5t-42.5 -17.5t-17.5 -42.5z" />
    <glyph glyph-name="glyph49" horiz-adv-x="705" 
d="M678 89q-51 -49 -117 -77t-142 -28q-77 0 -144.5 29t-118 79.5t-79.5 118t-29 144.5t29 144.5t79.5 118t118 79.5t144.5 29q76 0 142 -28t117 -77l-266 -266zM419 666q-65 0 -121.5 -24.5t-98.5 -66.5t-66.5 -99t-24.5 -121q0 -48 13 -90.5t37 -79.5l431 431
q-37 24 -79.5 37t-90.5 13zM419 44q48 0 90.5 13t79.5 37l-219 219l-175 -175q43 -44 100.5 -69t123.5 -25z" />
    <glyph glyph-name="glyph50" horiz-adv-x="705" 
d="M419 -16q-77 0 -144.5 29t-118 79.5t-79.5 118t-29 144.5t29 144.5t79.5 118t118 79.5t144.5 29q76 0 142 -28t117 -77l-266 -266l266 -266q-51 -49 -117 -77t-142 -28zM108 355q0 -65 24.5 -121.5t66.5 -98.5t98.5 -66.5t121.5 -24.5q48 0 90.5 13t79.5 37l-431 431
q-24 -37 -37 -80t-13 -90zM419 666q-66 0 -123.5 -25t-100.5 -70l175 -174l219 219q-37 24 -79.5 37t-90.5 13z" />
    <glyph glyph-name="glyph51" horiz-adv-x="707" 
d="M678 89q-51 -49 -117 -77t-142 -28q-77 0 -144.5 29t-118 79.5t-79.5 118t-29 144.5t29 144.5t79.5 118t118 79.5t144.5 29q76 0 142 -28t117 -77l-42 -43q-38 36 -85 58.5t-102 27.5v-619q55 5 102 27.5t85 59.5zM108 355q0 -61 21.5 -115t59.5 -95.5t89.5 -67.5
t110.5 -32v619q-59 -6 -110.5 -32t-89.5 -67.5t-59.5 -95t-21.5 -114.5z" />
    <glyph glyph-name="D.ss02" horiz-adv-x="761" 
d="M97 710h261q73 0 138 -28t113 -76t76 -113t28 -138q0 -74 -28 -138.5t-76 -112.5t-113 -76t-138 -28h-261v710zM277 650v-590h81q61 0 115 23t94 63t63 94t23 115t-23 115t-63 94t-94 63t-115 23h-81zM157 60h60v590h-60v-590z" />
    <glyph glyph-name="glyph57" horiz-adv-x="761" 
d="M490 618q-30 15 -63.5 23.5t-68.5 8.5h-261v60h261q73 0 138 -28t113 -76t76 -113t28 -138q0 -74 -28 -138.5t-76 -112.5t-113 -76t-138 -28h-261v203zM653 355q0 70 -29.5 129.5t-80.5 100.5l-386 -406v-119h201q61 0 115 23t94 63t63 94t23 115z" />
    <glyph glyph-name="D.ss04" horiz-adv-x="761" 
d="M358 60q61 0 115 23t94 63t63 94t23 115t-23 115t-63 94t-94 63t-115 23h-261v60h261q73 0 138 -28t113 -76t76 -113t28 -138q0 -74 -28 -138.5t-76 -112.5t-113 -76t-138 -28h-261v60h261z" />
    <glyph glyph-name="glyph59" horiz-adv-x="761" 
d="M97 710h261q73 0 138 -28t113 -76t76 -113t28 -138q0 -74 -28 -138.5t-76 -112.5t-113 -76t-138 -28h-261v710zM157 60h201q57 0 108 20.5t90 56t64 84t31 104.5h-494v-265zM157 650v-265h494q-6 56 -31 104.5t-64 84t-90 56t-108 20.5h-201z" />
    <glyph glyph-name="glyph60" horiz-adv-x="761" 
d="M97 710h261q73 0 138 -28t113 -76t76 -113t28 -138q0 -74 -28 -138.5t-76 -112.5t-113 -76t-138 -28h-261v710zM157 60h116v590h-116v-590zM333 650v-590h25q46 0 91 14v562q-45 14 -91 14h-25zM653 355q0 81 -39.5 148t-104.5 105v-507q65 39 104.5 106t39.5 148z" />
    <glyph glyph-name="D.ss08" horiz-adv-x="761" 
d="M97 710h261q73 0 138 -28t113 -76t76 -113t28 -138q0 -74 -28 -138.5t-76 -112.5t-113 -76t-138 -28h-261v710zM157 603l422 -444q35 39 54.5 89t19.5 107q0 61 -23 115t-63 94t-94 63t-115 23h-201v-47zM358 60q50 0 94.5 15.5t81.5 42.5l-377 398v-456h201z" />
    <glyph glyph-name="glyph62" horiz-adv-x="761" 
d="M97 710h261q73 0 138 -28t113 -76t76 -113t28 -138q0 -74 -28 -138.5t-76 -112.5t-113 -76t-138 -28h-261v710zM653 355q0 21 -3 40.5t-8 39.5h-485v-160h485q11 39 11 80zM157 650v-155h460q-38 69 -106 112t-153 43h-201zM358 60q85 0 153 43t106 112h-460v-155h201z
" />
    <glyph glyph-name="glyph63" horiz-adv-x="761" 
d="M97 710h261q73 0 138 -28t113 -76t76 -113t28 -138q0 -74 -28 -138.5t-76 -112.5t-113 -76t-138 -28h-261v710zM653 355q0 61 -23 114.5t-63 93.5t-93.5 63.5t-114.5 23.5q74 -48 118 -125t44 -170t-44 -170t-118 -125q61 0 114.5 23.5t93.5 63.5t63 93.5t23 114.5z
M273 355q0 61 -9 115t-25 94t-37 63t-45 23v-590q24 0 45 23t37 63t25 94t9 115zM333 355q0 -84 -17.5 -155t-47.5 -120q42 16 77.5 43.5t61 63.5t40 78.5t14.5 89.5t-14.5 89.5t-40 78t-61 63t-77.5 43.5q30 -49 47.5 -120t17.5 -154z" />
    <glyph glyph-name="glyph64" horiz-adv-x="761" 
d="M97 710h261q73 0 138 -28t113 -76t76 -113t28 -138q0 -74 -28 -138.5t-76 -112.5t-113 -76t-138 -28h-261v710zM157 60h201q61 0 115 23t94 63t63 94t23 115q0 57 -19.5 107t-54.5 89l-422 -444v-47zM157 650v-456l377 398q-37 27 -81.5 42.5t-94.5 15.5h-201z" />
    <glyph glyph-name="D.ss01" horiz-adv-x="761" 
d="M97 710h261q73 0 138 -28t113 -76t76 -113t28 -138q0 -74 -28 -138.5t-76 -112.5t-113 -76t-138 -28h-261v60h261q70 0 132 31l-393 416v203zM157 531l386 -406q51 41 80.5 100.5t29.5 129.5q0 61 -23 115t-63 94t-94 63t-115 23h-201v-119z" />
    <glyph glyph-name="glyph69" horiz-adv-x="648" 
d="M97 710h496v-60h-436v-215h406v-60h-406v-40h406v-60h-406v-215h436v-60h-496v710z" />
    <glyph glyph-name="E.ss10" horiz-adv-x="646" 
d="M97 710h496v-60h-316v-265h286v-60h-286v-265h316v-60h-496v710zM157 60h60v265h-60v-265zM157 385h60v265h-60v-265z" />
    <glyph glyph-name="glyph71" horiz-adv-x="648" 
d="M257 325h-100v-265h436v-60h-496v710h496v-60h-436v-265h100v168h306v-60h-246v-108h246v-60h-246v-108h246v-60h-306v168z" />
    <glyph glyph-name="E.ss09" horiz-adv-x="633" 
d="M97 710h496v-60h-394l280 -295l-280 -295h394v-60h-496v710zM157 608v-507l239 254z" />
    <glyph glyph-name="glyph73" horiz-adv-x="665" 
d="M97 510h60v-125h436v-60h-436v-125h-60v310zM533 60v115h60v-175h-496v60h436zM97 710h496v-175h-60v115h-436v60z" />
    <glyph glyph-name="E.ss07" horiz-adv-x="646" 
d="M97 710h496v-60h-496v60zM563 385v-60h-466v60h466zM593 60v-60h-496v60h496z" />
    <glyph glyph-name="glyph75" horiz-adv-x="644" 
d="M97 710h496v-60h-394l252 -265h112v-60h-364l252 -265h142v-60h-496v710zM157 283v-223h211zM157 608v-223h211z" />
    <glyph glyph-name="glyph76" horiz-adv-x="641" 
d="M97 710h496v-60l-250 -265h220v-60l-250 -265h280v-60h-496v710zM157 385h103l251 265h-354v-265zM157 60h73l251 265h-324v-265z" />
    <glyph glyph-name="glyph77" horiz-adv-x="648" 
d="M234 60l-137 146v179h137l-137 146v179h496v-60h-436v-96l160 -169h246v-60h-406v-96l160 -169h276v-60h-496v60h137z" />
    <glyph glyph-name="E.ss03" horiz-adv-x="650" 
d="M157 60h436v-60h-496v710h496v-60h-436v-158h406v-60h-406v-154h406v-60h-406v-158z" />
    <glyph glyph-name="glyph79" horiz-adv-x="648" 
d="M97 385h147l-147 156v169h496v-60h-436v-85l170 -180h236v-60h-236l-170 -180v-85h436v-60h-496v169l147 156h-147v60z" />
    <glyph glyph-name="glyph80" horiz-adv-x="643" 
d="M97 710h496v-60h-213v-265h183v-60h-183v-265h213v-60h-496v710zM157 60h163v265h-163v-265zM157 385h163v265h-163v-265z" />
    <glyph glyph-name="E.ss01" horiz-adv-x="647" 
d="M347 385l-250 265v60h496v-60h-414l251 -265h133v-60h-406v-265h436v-60h-496v385h250z" />
    <glyph glyph-name="glyph94" horiz-adv-x="638" 
d="M217 325h-60v-325h-60v710h496v-60h-316v-265h286v-60h-286v-325h-60v325zM157 385h60v265h-60v-265z" />
    <glyph glyph-name="F.ss09" horiz-adv-x="639" 
d="M157 385h406v-60h-406v-325h-60v710h496v-60h-436v-103h406v-60h-406v-102z" />
    <glyph glyph-name="F.ss04" horiz-adv-x="638" 
d="M347 385l-250 265v60h496v-60h-414l251 -265h133v-60h-406v-325h-60v385h250z" />
    <glyph glyph-name="glyph97" horiz-adv-x="636" 
d="M97 710h496v-60h-219v-265h189v-60h-406v-325h-60v710zM157 385h157v265h-157v-265z" />
    <glyph glyph-name="glyph98" horiz-adv-x="635" 
d="M97 710h496v-60h-142l-252 -265h364v-60h-112l-294 -309v-16h-60v710zM368 650h-211v-223zM368 325h-211v-223z" />
    <glyph glyph-name="F.ss02" horiz-adv-x="640" 
d="M97 710h496v-60h-496v60zM563 385v-60h-406v-325h-60v385h466z" />
    <glyph glyph-name="glyph100" horiz-adv-x="642" 
d="M97 710h496v-60h-496v60zM563 385v-60h-466v60h466z" />
    <glyph glyph-name="F.ss06" horiz-adv-x="641" 
d="M97 385h137l-137 146v179h496v-60h-436v-96l160 -169h246v-60h-406v-325h-60v385z" />
    <glyph glyph-name="glyph102" horiz-adv-x="636" 
d="M257 325h-100v-325h-60v710h496v-60h-436v-265h100v168h306v-60h-246v-108h246v-60h-246v-168h-60v168z" />
    <glyph glyph-name="glyph103" horiz-adv-x="613" 
d="M157 0h-60v710h496v-60h-394l280 -295zM157 89l239 266l-239 253v-519z" />
    <glyph glyph-name="G.ss09" horiz-adv-x="758" 
d="M634 52q-46 -32 -100.5 -50t-114.5 -18q-77 0 -144.5 29t-118 79.5t-79.5 118t-29 144.5t29 144.5t79.5 118t118 79.5t144.5 29q76 0 142 -28t117 -77l-42 -43q-42 42 -97.5 65t-119.5 23h-9.5t-9.5 -1v-289h294v-376h-60v52zM339 655q-50 -13 -92.5 -41.5t-73 -68
t-48 -88t-17.5 -102.5t17.5 -103t48 -88.5t73 -68t92.5 -41.5v601zM400 315v-271h19q63 0 118 22.5t97 63.5v185h-234z" />
    <glyph glyph-name="G.ss03" horiz-adv-x="758" 
d="M339 255h295v60h-295v61h355v-376h-60v52q-46 -32 -100.5 -50t-114.5 -18q-77 0 -144.5 29t-118 79.5t-79.5 118t-29 144.5t29 144.5t79.5 118t118 79.5t144.5 29q76 0 142 -28t117 -77l-42 -43q-42 42 -97.5 65t-119.5 23q-65 0 -121.5 -24.5t-98.5 -66.5t-66.5 -99
t-24.5 -121q0 -65 24.5 -121.5t66.5 -98.5t98.5 -66.5t121.5 -24.5q63 0 118 22.5t97 63.5v64h-295v61z" />
    <glyph glyph-name="glyph107" horiz-adv-x="758" 
d="M634 52q-46 -32 -100.5 -50t-114.5 -18q-77 0 -144.5 29t-118 79.5t-79.5 118t-29 144.5t29 144.5t79.5 118t118 79.5t144.5 29q76 0 142 -28t117 -77l-42 -43q-42 42 -97.5 65t-119.5 23h-9.5t-9.5 -1v-289h294v-376h-60v52zM339 655q-50 -13 -92.5 -41.5t-73 -68
t-48 -88t-17.5 -102.5q0 -65 24.5 -121.5t66.5 -98.5t98.5 -66.5t121.5 -24.5q63 0 118 22.5t97 63.5v185h-295v340z" />
    <glyph glyph-name="glyph108" horiz-adv-x="758" 
d="M433 376h261v-376h-60v52q-46 -32 -100.5 -50t-114.5 -18q-77 0 -144.5 29t-118 79.5t-79.5 118t-29 144.5t29 144.5t79.5 118t118 79.5t144.5 29q76 0 142 -28t117 -77zM419 44q63 0 118 22.5t97 63.5v185h-262l-177 -177q43 -44 100.5 -69t123.5 -25zM419 666
q-65 0 -121.5 -24.5t-98.5 -66.5t-66.5 -99t-24.5 -121q0 -48 13 -90.5t37 -79.5l431 431q-37 24 -79.5 37t-90.5 13z" />
    <glyph glyph-name="glyph109" horiz-adv-x="758" 
d="M634 52q-46 -32 -100.5 -50t-114.5 -18q-77 0 -144.5 29t-118 79.5t-79.5 118t-29 144.5t29 144.5t79.5 118t118 79.5t144.5 29q76 0 142 -28t117 -77l-42 -43q-42 42 -97.5 65t-119.5 23q-65 0 -121.5 -24.5t-98.5 -66.5t-66.5 -99t-24.5 -121q0 -54 17.5 -103t48 -88.5
t73 -68t92.5 -41.5v322h355v-376h-60v52zM400 315v-271h19q63 0 118 22.5t97 63.5v185h-234z" />
    <glyph glyph-name="G.ss06" horiz-adv-x="753" 
d="M634 315h-295v61h355v-270q-51 -57 -122 -89.5t-153 -32.5q-77 0 -144.5 29t-118 79.5t-79.5 118t-29 144.5t29 144.5t79.5 118t118 79.5t144.5 29q76 0 142 -28t117 -77l-42 -43q-42 42 -97.5 65t-119.5 23q-65 0 -121.5 -24.5t-98.5 -66.5t-66.5 -99t-24.5 -121
q0 -65 24.5 -121.5t66.5 -98.5t98.5 -66.5t121.5 -24.5q63 0 118 22.5t97 63.5v185z" />
    <glyph glyph-name="glyph111" horiz-adv-x="758" 
d="M634 52q-46 -32 -100.5 -50t-114.5 -18q-77 0 -144.5 29t-118 79.5t-79.5 118t-29 144.5t29 144.5t79.5 118t118 79.5t144.5 29q76 0 142 -28t117 -77l-42 -43q-42 42 -97.5 65t-119.5 23q-62 0 -116.5 -22.5t-96 -61.5t-67.5 -92t-30 -114h585v-376h-60v52zM110 315
q7 -57 34 -106.5t68.5 -86t94 -57.5t112.5 -21q63 0 118 22.5t97 63.5v185h-524z" />
    <glyph glyph-name="glyph112" horiz-adv-x="758" 
d="M634 52q-46 -32 -100.5 -50t-114.5 -18q-77 0 -144.5 29t-118 79.5t-79.5 118t-29 144.5t29 144.5t79.5 118t118 79.5t144.5 29q76 0 142 -28t117 -77l-42 -43q-42 42 -97.5 65t-119.5 23q-65 0 -121.5 -24.5t-98.5 -66.5t-66.5 -99t-24.5 -121q0 -51 15 -97t42.5 -84
t65 -67t82.5 -45l239 253h-213v61h355v-376h-60v52zM634 315l-255 -269q10 -1 19.5 -1.5t20.5 -0.5q63 0 118 22.5t97 63.5v185z" />
    <glyph glyph-name="glyph113" horiz-adv-x="759" 
d="M635 0h60v376h-355v-61h295v-315zM341 656q-50 -13 -92.5 -41.5t-73.5 -68t-48.5 -88.5t-17.5 -103t17.5 -103t48.5 -88.5t73.5 -68t92.5 -41.5v-61q-63 13 -116.5 46t-92.5 81t-61 108t-22 127t22 127t61 108t92.5 81t116.5 46v-61z" />
    <glyph glyph-name="G.ss04" horiz-adv-x="758" 
d="M50 315q-1 10 -1.5 20t-0.5 20q0 77 29 144.5t79.5 118t118 79.5t144.5 29q76 0 142 -28t117 -77l-42 -43q-42 42 -97.5 65t-119.5 23q-65 0 -121.5 -24.5t-98.5 -66.5t-66.5 -99t-24.5 -121q0 -21 3 -40h-61zM634 315h-295v61h355v-376h-60v315z" />
    <glyph glyph-name="H.ss03" horiz-adv-x="776" 
d="M358 325h-201v-325h-60v710h60v-325h201v325h60v-325h201v325h60v-710h-60v325h-201v-325h-60v325z" />
    <glyph glyph-name="glyph117" horiz-adv-x="731" 
d="M679 0h-60v325h-462v-325h-60v710h60v-325h522v-385z" />
    <glyph glyph-name="glyph118" horiz-adv-x="776" 
d="M619 187l-115 120l-116 -123l-117 123l-114 -120v-187h-60v710h60v-195l114 -121l117 124l116 -124l115 121v195h60v-710h-60v187zM463 351l-75 79l-75 -79l75 -79zM619 273v156l-74 -78zM157 429v-156l73 78z" />
    <glyph glyph-name="glyph119" horiz-adv-x="776" 
d="M619 178q-40 -53 -100 -83.5t-131 -30.5q-72 0 -131.5 30.5t-99.5 83.5v-178h-60v710h60v-178q40 52 99.5 83t131.5 31q71 0 131 -31t100 -83v178h60v-710h-60v178zM388 124q44 0 83.5 15.5t70 42.5t50.5 63.5t26 79.5h-460q6 -43 26 -79.5t50.5 -63.5t70 -42.5
t83.5 -15.5zM618 385q-6 43 -26 79.5t-50.5 63.5t-70 42.5t-83.5 15.5t-83.5 -15.5t-70 -42.5t-50.5 -63.5t-26 -79.5h460z" />
    <glyph glyph-name="H.ss04" horiz-adv-x="771" 
d="M92 710h60v-325h462v325h60v-385h-582v385z" />
    <glyph glyph-name="H.ss01" horiz-adv-x="776" 
d="M619 259h-462v-259h-60v710h60v-259h462v259h60v-710h-60v259zM157 319h462v72h-462v-72z" />
    <glyph glyph-name="glyph122" horiz-adv-x="776" 
d="M217 325h-60v-325h-60v710h60v-325h60v325h60v-325h222v325h60v-325h60v325h60v-710h-60v325h-60v-325h-60v325h-222v-325h-60v325z" />
    <glyph glyph-name="glyph123" horiz-adv-x="776" 
d="M97 0v710h60l308 -325h154v325h60v-710h-60v325h-154l-308 -325h-60zM157 385h225l-225 238v-238zM157 87l225 238h-225v-238z" />
    <glyph glyph-name="H.ss08" horiz-adv-x="776" 
d="M619 195h-462v-195h-60v710h60v-195h462v195h60v-710h-60v195zM157 255h462v200h-462v-200z" />
    <glyph glyph-name="glyph125" horiz-adv-x="776" 
d="M619 0l-308 325h-154v-325h-60v710h60v-325h154l308 325h60v-710h-60zM619 623l-225 -238h225v238zM619 325h-225l225 -238v238z" />
    <glyph glyph-name="glyph126" horiz-adv-x="776" 
d="M328 355q0 25 17.5 42.5t42.5 17.5t42.5 -17.5t17.5 -42.5t-17.5 -42.5t-42.5 -17.5t-42.5 17.5t-17.5 42.5zM157 0h-60v710h60v-710zM619 710h60v-710h-60v710z" />
    <glyph glyph-name="glyph127" horiz-adv-x="776" 
d="M619 187l-231 243l-231 -243v-187h-60v710h60v-437l231 245l231 -245v437h60v-710h-60v187z" />
    <glyph glyph-name="I.ss02" horiz-adv-x="286" 
d="M173 60h60v-60h-180v60h60v590h-60v60h180v-60h-60v-590z" />
    <glyph glyph-name="I.ss07" horiz-adv-x="386" 
d="M173 0h-120v60h60v590h-60v60h120v-710zM213 710h120v-60h-60v-590h60v-60h-120v710z" />
    <glyph glyph-name="glyph131" horiz-adv-x="278" 
d="M169 0h-60v325h-70v60h70v325h60v-325h70v-60h-70v-325z" />
    <glyph glyph-name="glyph132" horiz-adv-x="254" 
d="M97 710h60v-315h-60v315zM97 315h60v-315h-60v315z" />
    <glyph glyph-name="glyph133" horiz-adv-x="374" 
d="M97 710h180v-710h-180v710zM157 60h60v590h-60v-590z" />
    <glyph glyph-name="glyph134" horiz-adv-x="278" 
d="M49 445h60v265h60v-265h60v-60h-180v60zM49 325h180v-60h-60v-265h-60v265h-60v60z" />
    <glyph glyph-name="I.ss08" horiz-adv-x="454" 
d="M257 60h160v-60h-380v60h160v590h-160v60h380v-60h-160v-590z" />
    <glyph glyph-name="glyph144" horiz-adv-x="497" 
d="M270 325h180v-60h-60v-71q0 -44 -16.5 -82t-45 -66.5t-67 -45t-81.5 -16.5q-51 0 -93.5 21.5t-71.5 58.5l43 42q20 -29 52 -45.5t70 -16.5q31 0 58.5 12t47.5 32t32 47.5t12 58.5v71h-60v60zM270 445h60v265h60v-265h60v-60h-180v60z" />
    <glyph glyph-name="J.ss01" horiz-adv-x="491" 
d="M56 710h344v-516q0 -44 -16.5 -82t-45 -66.5t-67 -45t-81.5 -16.5q-51 0 -93.5 21.5t-71.5 58.5l43 42q20 -29 52 -45.5t70 -16.5q31 0 58.5 12t47.5 32t32 47.5t12 58.5v456h-284v60z" />
    <glyph glyph-name="J.ss09" horiz-adv-x="483" 
d="M60 106q20 -29 52 -45.5t70 -16.5q15 0 30 3v663h60v-636q27 20 43.5 51.5t16.5 68.5v516h60v-516q0 -44 -16.5 -82t-45 -66.5t-67 -45t-81.5 -16.5q-51 0 -93.5 21.5t-71.5 58.5z" />
    <glyph glyph-name="glyph147" horiz-adv-x="476" 
d="M325 379v331h60v-516q0 -44 -16.5 -82t-45 -66.5t-67 -45t-81.5 -16.5q-51 0 -93.5 21.5t-71.5 58.5zM175 44q31 0 58.5 12t47.5 32t32 47.5t12 58.5v101l-229 -229q36 -22 79 -22z" />
    <glyph glyph-name="J.ss04" horiz-adv-x="314" 
d="M13 44q31 0 58.5 12t47.5 32t32 47.5t12 58.5v516h60v-516q0 -44 -16.5 -82t-45 -66.5t-67 -45t-81.5 -16.5v60z" />
    <glyph glyph-name="K.ss06" horiz-adv-x="660" 
d="M97 710h60v-325h178l236 325h74l-258 -355l258 -355h-74l-236 325h-178v-325h-60v710z" />
    <glyph glyph-name="glyph151" horiz-adv-x="653" 
d="M97 710h545l-294 -300l294 -410h-545v710zM157 60h368l-220 306l-148 -151v-155zM157 650v-350l343 350h-343z" />
    <glyph glyph-name="glyph152" horiz-adv-x="712" 
d="M157 0h-60v710h60v-325h241l184 153v172h60v-200l-187 -155l187 -155v-200h-60v172l-184 153h-241v-325z" />
    <glyph glyph-name="K.ss04" horiz-adv-x="443" 
d="M96 355l258 355h74l-258 -355l258 -355h-74z" />
    <glyph glyph-name="glyph154" horiz-adv-x="648" 
d="M276 310l-119 -129v-181h-60v710h60v-181l119 -130l285 311h81l-326 -355l326 -355h-81zM235 355l-78 85v-170z" />
    <glyph glyph-name="K.ss09" horiz-adv-x="660" 
d="M313 355l258 355h74l-258 -355l258 -355h-74zM97 710h60v-710h-60v710z" />
    <glyph glyph-name="K.ss03" horiz-adv-x="660" 
d="M97 710h548l-258 -355l258 -355h-548v710zM527 650h-370v-590h370l-214 295z" />
    <glyph glyph-name="glyph157" horiz-adv-x="653" 
d="M217 276l-60 -61v-215h-60v710h60v-410l60 61v349h60v-288l282 288h83l-294 -300l294 -410h-74l-263 366l-28 -29v-337h-60v276z" />
    <glyph glyph-name="glyph158" horiz-adv-x="700" 
d="M353 355l258 355h74l-258 -355l258 -355h-74zM199 355l258 355h74l-258 -355l258 -355h-74zM97 710h60v-710h-60v710z" />
    <glyph glyph-name="glyph159" horiz-adv-x="739" 
d="M305 366l-148 -151v-215h-60v710h60v-410l402 410h83v-710h-74zM582 83v566l-234 -239z" />
    <glyph glyph-name="K.ss10" horiz-adv-x="660" 
d="M97 710h548l-258 -355l258 -355h-548v710zM157 60h370l-192 265h-178v-265zM157 385h178l192 265h-370v-265z" />
    <glyph glyph-name="glyph161" horiz-adv-x="657" 
d="M345 275l-188 -275h-60v710h60v-603l413 603h72l-262 -383l262 -327h-76z" />
    <glyph glyph-name="L.ss03" horiz-adv-x="618" 
d="M97 710h60v-650h60v650h60v-650h326v-60h-506v710z" />
    <glyph glyph-name="L.ss04" horiz-adv-x="640" 
d="M97 710h60v-530h446v-60h-446v-60h446v-60h-506v710z" />
    <glyph glyph-name="glyph165" horiz-adv-x="638" 
d="M97 710h60v-530h60v530h60v-530h326v-60h-326v-60h326v-60h-506v710zM157 60h60v60h-60v-60z" />
    <glyph glyph-name="glyph166" horiz-adv-x="621" 
d="M603 0h-506v710h60v-178l446 -472v-60zM157 445v-385h364z" />
    <glyph glyph-name="glyph167" horiz-adv-x="619" 
d="M97 710h60v-650h172v650h60v-650h214v-60h-506v710z" />
    <glyph glyph-name="glyph168" horiz-adv-x="633" 
d="M97 0v710h159v-60h-99v-590h386v99h60v-159h-506z" />
    <glyph glyph-name="L.ss10" horiz-adv-x="650" 
d="M97 710h60v-650h446v-60h-506v710zM297 710h60v-450h246v-60h-306v510z" />
    <glyph glyph-name="M.ss06" horiz-adv-x="906" 
d="M157 0h-60v710h60l296 -383l296 383h60v-710h-60v612l-296 -382l-296 382v-612z" />
    <glyph glyph-name="M.ss07" horiz-adv-x="906" 
d="M97 710h60l296 -383l296 383h60v-710h-712v710zM157 60h592v552l-296 -382l-296 382v-552z" />
    <glyph glyph-name="glyph176" horiz-adv-x="906" 
d="M356 278l97 -209l296 641h60v-710h-60v570l-263 -570h-66l-263 570v-570h-60v710h60l167 -362l167 362h65z" />
    <glyph glyph-name="glyph177" horiz-adv-x="906" 
d="M157 0h-60v710h60l266 -576v576h60v-576l266 576h60v-710h-60v570l-263 -570h-66l-263 570v-570z" />
    <glyph glyph-name="M.ss04" horiz-adv-x="906" 
d="M809 710v-710h-60v710h60zM157 240v-240h-60v240h60zM162 710l323 -710h-65l-323 710h65z" />
    <glyph glyph-name="M.ss09" horiz-adv-x="906" 
d="M319 153l96 125l-258 334v-612h-60v710h60l296 -384l296 384h60v-710h-60v612l-259 -334l97 -125v-60h-268v60zM453 229l-59 -76h118z" />
    <glyph glyph-name="glyph180" horiz-adv-x="906" 
d="M749 0v218h-592v-218h-60v710h60l296 -383l296 383h60v-710h-60zM157 278h259l-259 334v-334zM490 278h259v334z" />
    <glyph glyph-name="glyph181" horiz-adv-x="980" 
d="M522 371l157 -371h-65l-124 294l-124 -294h-65l156 371l-112 267l-269 -638h-65l299 710h70l110 -262l110 262h70l299 -710h-65l-269 638z" />
    <glyph glyph-name="glyph182" horiz-adv-x="980" 
d="M522 371l157 -371h-378l156 371l-112 267l-269 -638h-65l299 710h70l110 -262l110 262h70l299 -710h-65l-269 638zM391 60h197l-98 234z" />
    <glyph glyph-name="M.ss05" horiz-adv-x="906" 
d="M157 0h-60v757l356 -676l356 676v-757h-60v514l-296 -561l-296 561v-514z" />
    <glyph glyph-name="M.ss02" horiz-adv-x="906" 
d="M453 398l296 312h60v-710h-60v623l-592 -623h-60v710h60zM157 87l255 268l-255 268v-536z" />
    <glyph glyph-name="glyph185" horiz-adv-x="906" 
d="M157 0h-60v710h60l296 -312l296 312h60v-710h-60l-592 623v-623zM749 623l-255 -268l255 -268v536z" />
    <glyph glyph-name="glyph186" horiz-adv-x="906" 
d="M97 710h60l296 -641l296 641h60v-710h-712v710zM157 60h235l-235 510v-510zM513 60h236v510z" />
    <glyph glyph-name="glyph187" horiz-adv-x="906" 
d="M157 0h-60v710h712v-710h-60v570l-263 -570h-66l-263 570v-570zM453 69l268 581h-537z" />
    <glyph glyph-name="glyph188" horiz-adv-x="906" 
d="M97 710h712v-710h-712v710zM157 60h592v552l-296 -382l-296 382v-552zM453 327l249 323h-499z" />
    <glyph glyph-name="M.ss08" horiz-adv-x="906" 
d="M97 60h712v-60h-712v60zM157 157h-60v553h60l296 -383l296 383h60v-553h-60v455l-296 -382l-296 382v-455z" />
    <glyph glyph-name="glyph190" horiz-adv-x="906" 
d="M606 260l-120 -260h-66l-120 260v-260h-60v390l-83 180v-570h-60v710h60l296 -641l296 641h60v-710h-60v570l-83 -180v-390h-60v260z" />
    <glyph glyph-name="glyph191" horiz-adv-x="906" 
d="M350 710h65l167 -362l167 362h60v-710h-60v570l-263 -570h-66l-263 570v-570h-60v710h60l296 -641l97 209z" />
    <glyph glyph-name="N.ss02" horiz-adv-x="776" 
d="M388 305l-231 -305h-60v710h60l462 -611v611h60v-710h-60zM157 99l193 256l-193 256v-512z" />
    <glyph glyph-name="glyph194" horiz-adv-x="776" 
d="M157 0h-60v710h582v-710h-60l-462 611v-611zM619 650h-417l417 -551v551z" />
    <glyph glyph-name="N.ss05" horiz-adv-x="776" 
d="M157 0h-60v757l522 -637v590h60v-757l-522 637v-590z" />
    <glyph glyph-name="glyph196" horiz-adv-x="776" 
d="M97 710h60l462 -611v611h60v-710h-582v710zM157 60h416l-416 551v-551z" />
    <glyph glyph-name="glyph197" horiz-adv-x="776" 
d="M97 710h60l201 -266v266h321v-710h-60l-201 265v-265h-321v710zM619 99v551h-201v-286zM157 60h201v285l-201 266v-551z" />
    <glyph glyph-name="N.ss07" horiz-adv-x="776" 
d="M679 710v-710h-60v611l-462 -611h-60v710h60v-611l462 611h60z" />
    <glyph glyph-name="glyph199" horiz-adv-x="776" 
d="M373 325h-216v-325h-60v710h60l245 -325h217v325h60v-710h-60zM619 325h-171l171 -226v226zM157 385h171l-171 226v-226z" />
    <glyph glyph-name="N.ss06" horiz-adv-x="776" 
d="M157 0h-60v710h60l462 -488v488h60v-710h-60v135l-462 488v-623z" />
    <glyph glyph-name="N.ss09" horiz-adv-x="776" 
d="M157 0h-60v710h60l462 -465v465h60v-710h-60l-462 465v-465zM157 550l462 -465v75l-462 465v-75z" />
    <glyph glyph-name="glyph202" horiz-adv-x="776" 
d="M619 650h-462v-650h-60v710h582v-710h-60v650z" />
    <glyph glyph-name="glyph203" horiz-adv-x="776" 
d="M157 0h-60v710h60l201 -266v266h60v-346l201 -265v611h60v-710h-60l-201 265v-265h-60v345l-201 266v-611z" />
    <glyph glyph-name="O.ss01" horiz-adv-x="838" 
d="M48 355q0 77 29 144.5t79.5 118t118 79.5t144.5 29t144.5 -29t118 -79.5t79.5 -118t29 -144.5t-29 -144.5t-79.5 -118t-118 -79.5t-144.5 -29t-144.5 29t-118 79.5t-79.5 118t-29 144.5zM108 355q0 -65 24.5 -121.5t66.5 -98.5t98.5 -66.5t121.5 -24.5q64 0 121 24.5
t99 66.5t66.5 98.5t24.5 121.5q0 64 -24.5 121t-66.5 99t-99 66.5t-121 24.5q-65 0 -121.5 -24.5t-98.5 -66.5t-66.5 -99t-24.5 -121zM359 355q0 25 17.5 42.5t42.5 17.5t42.5 -17.5t17.5 -42.5t-17.5 -42.5t-42.5 -17.5t-42.5 17.5t-17.5 42.5z" />
    <glyph glyph-name="O.ss03" horiz-adv-x="838" 
d="M48 355q0 77 29 144.5t79.5 118t118 79.5t144.5 29t144.5 -29t118 -79.5t79.5 -118t29 -144.5t-29 -144.5t-79.5 -118t-118 -79.5t-144.5 -29t-144.5 29t-118 79.5t-79.5 118t-29 144.5zM108 355q0 -65 24.5 -121.5t66.5 -98.5t98.5 -66.5t121.5 -24.5q57 0 107 18.5
t90 51.5l-438 438q-33 -40 -51.5 -90t-18.5 -107zM419 666q-57 0 -107 -19t-91 -52l438 -438q33 41 52 91t19 107q0 64 -24.5 121t-66.5 99t-99 66.5t-121 24.5z" />
    <glyph glyph-name="glyph210" horiz-adv-x="838" 
d="M790 355q0 -77 -29 -144.5t-79.5 -118t-118 -79.5t-144.5 -29t-144.5 29t-118 79.5t-79.5 118t-29 144.5t29 144.5t79.5 118t118 79.5t144.5 29t144.5 -29t118 -79.5t79.5 -118t29 -144.5zM730 355q0 57 -19 107t-52 90l-438 -438q41 -33 91 -51.5t107 -18.5
q64 0 121 24.5t99 66.5t66.5 98.5t24.5 121.5zM108 355q0 -57 18.5 -107t51.5 -91l438 438q-40 33 -90 52t-107 19q-65 0 -121.5 -24.5t-98.5 -66.5t-66.5 -99t-24.5 -121z" />
    <glyph glyph-name="glyph211" horiz-adv-x="838" 
d="M48 355q0 77 29 144.5t79.5 118t118 79.5t144.5 29t144.5 -29t118 -79.5t79.5 -118t29 -144.5t-29 -144.5t-79.5 -118t-118 -79.5t-144.5 -29t-144.5 29t-118 79.5t-79.5 118t-29 144.5zM730 355q0 57 -19 107t-52 90l-197 -197l197 -198q33 41 52 91t19 107zM419 44
q57 0 107 18.5t90 51.5l-197 198l-198 -198q41 -33 91 -51.5t107 -18.5zM419 666q-57 0 -107 -19t-91 -52l198 -197l197 197q-40 33 -90 52t-107 19zM108 355q0 -57 18.5 -107t51.5 -91l198 198l-198 197q-33 -40 -51.5 -90t-18.5 -107z" />
    <glyph glyph-name="O.ss06" horiz-adv-x="838" 
d="M48 355q0 77 29 144.5t79.5 118t118 79.5t144.5 29t144.5 -29t118 -79.5t79.5 -118t29 -144.5t-29 -144.5t-79.5 -118t-118 -79.5t-144.5 -29t-144.5 29t-118 79.5t-79.5 118t-29 144.5zM108 355q0 -61 21.5 -115t59.5 -95.5t89.5 -67.5t110.5 -32v619q-59 -6 -110.5 -32
t-89.5 -67.5t-59.5 -95t-21.5 -114.5zM730 355q0 61 -21.5 114.5t-59.5 95t-89.5 67.5t-110.5 32v-619q59 6 110.5 32t89.5 67.5t59.5 95.5t21.5 115z" />
    <glyph glyph-name="glyph213" horiz-adv-x="838" 
d="M48 355q0 77 29 144.5t79.5 118t118 79.5t144.5 29t144.5 -29t118 -79.5t79.5 -118t29 -144.5t-29 -144.5t-79.5 -118t-118 -79.5t-144.5 -29t-144.5 29t-118 79.5t-79.5 118t-29 144.5zM419 44q61 0 114.5 21.5t95 59.5t67.5 89.5t32 110.5h-619q6 -59 32 -110.5
t67.5 -89.5t95.5 -59.5t115 -21.5zM419 666q-61 0 -115 -21.5t-95.5 -59.5t-67.5 -89.5t-32 -110.5h619q-6 59 -32 110.5t-67.5 89.5t-95 59.5t-114.5 21.5z" />
    <glyph glyph-name="O.ss09" horiz-adv-x="650" 
d="M75 60h500v-60h-500v60zM45 446q0 58 22 109t60 89t89 60t109 22t109 -22t89 -60t60 -89t22 -109t-22 -109t-60 -89t-89 -60t-109 -22t-109 22t-89 60t-60 89t-22 109zM105 446q0 -45 17.5 -85t47.5 -70t70 -47.5t85 -17.5t85 17.5t70 47.5t47.5 70t17.5 85t-17.5 85
t-47.5 70t-70 47.5t-85 17.5t-85 -17.5t-70 -47.5t-47.5 -70t-17.5 -85z" />
    <glyph glyph-name="O.ss10" horiz-adv-x="838" 
d="M48 355q0 77 29 144.5t79.5 118t118 79.5t144.5 29t144.5 -29t118 -79.5t79.5 -118t29 -144.5t-29 -144.5t-79.5 -118t-118 -79.5t-144.5 -29t-144.5 29t-118 79.5t-79.5 118t-29 144.5zM108 355q0 -65 24.5 -121.5t66.5 -98.5t98.5 -66.5t121.5 -24.5q64 0 121 24.5
t99 66.5t66.5 98.5t24.5 121.5q0 64 -24.5 121t-66.5 99t-99 66.5t-121 24.5q-65 0 -121.5 -24.5t-98.5 -66.5t-66.5 -99t-24.5 -121zM169 355q0 51 19.5 96.5t53.5 79.5t79.5 53.5t96.5 19.5t96.5 -19.5t79.5 -53.5t53.5 -79.5t19.5 -96.5t-19.5 -96.5t-53.5 -79.5
t-79.5 -53.5t-96.5 -19.5t-96.5 19.5t-79.5 53.5t-53.5 79.5t-19.5 96.5zM230 355q0 -39 15 -73.5t40.5 -60t60 -40.5t73.5 -15t73.5 15t60 40.5t40.5 60t15 73.5t-15 73.5t-40.5 60t-60 40.5t-73.5 15t-73.5 -15t-60 -40.5t-40.5 -60t-15 -73.5z" />
    <glyph glyph-name="glyph216" horiz-adv-x="1726" 
d="M403 0q-74 0 -138.5 28t-112.5 76t-76 112.5t-28 138.5q0 73 28 138t76 113t112.5 76t138.5 28h920q73 0 138 -28t113 -76t76 -113t28 -138q0 -74 -28 -138.5t-76 -112.5t-113 -76t-138 -28h-920zM403 650q-61 0 -115 -23t-94 -63t-63 -94t-23 -115t23 -115t63 -94
t94 -63t115 -23h920q61 0 115 23t94 63t63 94t23 115t-23 115t-63 94t-94 63t-115 23h-920z" />
    <glyph glyph-name="glyph217" horiz-adv-x="724" 
d="M362 -10l-365 365l365 365l365 -365zM642 355l-280 280l-280 -280l280 -280z" />
    <glyph glyph-name="P.ss02" horiz-adv-x="681" 
d="M157 0h-60v305h247l-247 405h313q48 0 90.5 -18.5t74 -50t50 -74t18.5 -90.5t-18.5 -90.5t-50 -74t-74 -49.5t-90.5 -18h-253v-245zM203 650l211 -345q35 1 65.5 14.5t53.5 37t36.5 54.5t13.5 66q0 36 -13.5 67.5t-37 55t-55 37t-67.5 13.5h-207z" />
    <glyph glyph-name="P.ss08" horiz-adv-x="677" 
d="M157 0h-60v710h313q48 0 90.5 -18.5t74 -50t50 -74t18.5 -90.5t-18.5 -90.5t-50 -74t-74 -49.5t-90.5 -18h-133v-245h-60v245h-60v-245zM410 305q36 0 67.5 13.5t55 37t37 54.5t13.5 67t-13.5 67.5t-37 55t-55 37t-67.5 13.5h-133v-345h133zM157 305h60v345h-60v-345z
" />
    <glyph glyph-name="P.ss04" horiz-adv-x="677" 
d="M157 0h-60v305h313q36 0 67.5 13.5t55 37t37 54.5t13.5 67t-13.5 67.5t-37 55t-55 37t-67.5 13.5h-313v60h313q48 0 90.5 -18.5t74 -50t50 -74t18.5 -90.5t-18.5 -90.5t-50 -74t-74 -49.5t-90.5 -18h-253v-245z" />
    <glyph glyph-name="glyph231" horiz-adv-x="677" 
d="M97 710h60v-710h-60v710zM410 305q36 0 67.5 13.5t55 37t37 54.5t13.5 67t-13.5 67.5t-37 55t-55 37t-67.5 13.5v60q48 0 90.5 -18.5t74 -50t50 -74t18.5 -90.5t-18.5 -90.5t-50 -74t-74 -49.5t-90.5 -18v60z" />
    <glyph glyph-name="glyph232" horiz-adv-x="677" 
d="M157 0h-60v710h313q48 0 90.5 -18.5t74 -50t50 -74t18.5 -90.5t-18.5 -90.5t-50 -74t-74 -49.5t-90.5 -18h-133v-245h-60v245h-60v-245zM157 305h253q36 0 67.5 13.5t55 37t37 54.5t13.5 67t-13.5 67.5t-37 55t-55 37t-67.5 13.5h-253v-345z" />
    <glyph glyph-name="glyph233" horiz-adv-x="681" 
d="M241 426l-84 -138v-288h-60v305l211 345h-211v60h313q48 0 90.5 -18.5t74 -50t50 -74t18.5 -90.5t-18.5 -90.5t-50 -74t-74 -49.5t-90.5 -18h-52zM410 305q36 0 67.5 13.5t55 37t37 54.5t13.5 67t-13.5 67.5t-37 55t-55 37t-67.5 13.5h-32l-103 -168l115 -177h20z" />
    <glyph glyph-name="P.ss03" horiz-adv-x="681" 
d="M157 0h-60v305l124 203l-124 202h313q48 0 90.5 -18.5t74 -50t50 -74t18.5 -90.5t-18.5 -90.5t-50 -74t-74 -49.5t-90.5 -18h-253v-245zM410 305q36 0 67.5 13.5t55 37t37 54.5t13.5 67t-13.5 67.5t-37 55t-55 37t-67.5 13.5h-206l87 -142l-124 -203h243z" />
    <glyph glyph-name="P.ss10" horiz-adv-x="677" 
d="M157 0h-60v710h313q48 0 90.5 -18.5t74 -50t50 -74t18.5 -90.5t-18.5 -90.5t-50 -74t-74 -49.5t-90.5 -18h-253v-245zM157 507h423q-6 30 -21 56.5t-37.5 45.5t-51 30t-60.5 11h-253v-143zM410 305q32 0 60.5 11t51 30t37.5 45t21 56h-423v-142h253z" />
    <glyph glyph-name="glyph236" horiz-adv-x="670" 
d="M157 0h-60v710h313q48 0 90.5 -18.5t74 -50t50 -74t18.5 -90.5t-18.5 -90.5t-50 -74t-74 -49.5t-90.5 -18h-33v-245h-60v245h-160v-245zM410 305q36 0 67.5 13.5t55 37t37 54.5t13.5 67t-13.5 67.5t-37 55t-55 37t-67.5 13.5h-33v-345h33zM157 305h160v345h-160v-345z
" />
    <glyph glyph-name="Q.ss03" horiz-adv-x="838" 
d="M659 72q-49 -42 -110 -65t-130 -23q-77 0 -144.5 29t-118 79.5t-79.5 118t-29 144.5t29 144.5t79.5 118t118 79.5t144.5 29t144.5 -29t118 -79.5t79.5 -118t29 -144.5q0 -69 -23.5 -130.5t-65.5 -110.5l73 -72l-43 -42zM419 666q-57 0 -107.5 -19t-90.5 -52l438 -438
q33 40 52 90.5t19 107.5q0 64 -24.5 121t-66.5 99t-99 66.5t-121 24.5zM108 355q0 -65 24.5 -121.5t66.5 -98.5t98.5 -66.5t121.5 -24.5q57 0 107 18.5t90 51.5l-438 438q-33 -40 -51.5 -90t-18.5 -107z" />
    <glyph glyph-name="Q.ss08" horiz-adv-x="836" 
d="M388 -15q-72 6 -134 37t-108 80.5t-72.5 114.5t-26.5 138q0 77 29 144.5t79.5 118t118 79.5t144.5 29t144.5 -29t118 -79.5t79.5 -118t29 -144.5q0 -73 -26.5 -138t-72.5 -114.5t-108 -80.5t-134 -37v-105h-60v105zM107 355q0 -61 21.5 -115t59.5 -95.5t89.5 -67.5
t110.5 -32v75h60v-75q59 6 110.5 32t89.5 67.5t59.5 95.5t21.5 115q0 64 -24.5 121t-66.5 99t-99 66.5t-121 24.5q-65 0 -121.5 -24.5t-98.5 -66.5t-66.5 -99t-24.5 -121z" />
    <glyph glyph-name="Q.ss07" horiz-adv-x="836" 
d="M388 -15q-72 6 -134 37t-108 80.5t-72.5 114.5t-26.5 138q0 77 29 144.5t79.5 118t118 79.5t144.5 29t144.5 -29t118 -79.5t79.5 -118t29 -144.5q0 -73 -26.5 -138t-72.5 -114.5t-108 -80.5t-134 -37v-105h-60v105zM729 355q0 61 -21.5 114.5t-59.5 95t-89.5 67.5
t-110.5 32v-619q59 6 110.5 32t89.5 67.5t59.5 95.5t21.5 115zM107 355q0 -61 21.5 -115t59.5 -95.5t89.5 -67.5t110.5 -32v619q-59 -6 -110.5 -32t-89.5 -67.5t-59.5 -95t-21.5 -114.5z" />
    <glyph glyph-name="glyph241" horiz-adv-x="838" 
d="M329 -5q-61 15 -112.5 48.5t-89 81t-58.5 106.5t-21 124q0 77 29 144.5t79.5 118t118 79.5t144.5 29t144.5 -29t118 -79.5t79.5 -118t29 -144.5q0 -65 -21.5 -124t-59 -106.5t-89 -81t-111.5 -48.5v-115h-60v105q-8 -1 -15 -1h-15h-15t-15 1v-105h-60v115zM108 355
q0 -53 16.5 -101t46 -87t70 -67.5t88.5 -42.5v596q-48 -15 -88.5 -43.5t-70 -67.5t-46 -87t-16.5 -100zM730 355q0 52 -16.5 100t-46 87t-70 67.5t-88.5 43.5v-596q48 14 88.5 42.5t70 67.5t46 87t16.5 101zM419 666q-8 0 -15 -0.5t-15 -1.5v-619q8 -1 15 -1h15h15t15 1v619
q-8 1 -15 1.5t-15 0.5z" />
    <glyph glyph-name="glyph242" horiz-adv-x="841" 
d="M610 37q-42 -26 -90 -39.5t-101 -13.5q-77 0 -144.5 29t-118 79.5t-79.5 118t-29 144.5t29 144.5t79.5 118t118 79.5t144.5 29t144.5 -29t118 -79.5t79.5 -118t29 -144.5q0 -53 -14 -101t-39 -90l85 -85l-42 -42l-78 78q-10 -12 -21 -22.5t-22 -20.5l78 -78l-42 -42z
M108 355q0 -65 24.5 -121.5t66.5 -98.5t98.5 -66.5t121.5 -24.5q79 0 147 37l-421 421q-37 -68 -37 -147zM419 666q-41 0 -77.5 -10t-69.5 -27l421 -421q17 33 27 69.5t10 77.5q0 64 -24.5 121t-66.5 99t-99 66.5t-121 24.5zM221 595q-11 -10 -22 -20.5t-21 -22.5l438 -438
q12 10 22.5 21t20.5 22z" />
    <glyph glyph-name="glyph243" horiz-adv-x="836" 
d="M388 -15q-72 6 -134 37t-108 80.5t-72.5 114.5t-26.5 138q0 77 29 144.5t79.5 118t118 79.5t144.5 29t144.5 -29t118 -79.5t79.5 -118t29 -144.5q0 -73 -26.5 -138t-72.5 -114.5t-108 -80.5t-134 -37v-105h-60v105zM107 355q0 -65 24.5 -121.5t66.5 -98.5t98.5 -66.5
t121.5 -24.5q64 0 121 24.5t99 66.5t66.5 98.5t24.5 121.5q0 64 -24.5 121t-66.5 99t-99 66.5t-121 24.5q-65 0 -121.5 -24.5t-98.5 -66.5t-66.5 -99t-24.5 -121zM358 355q0 25 17.5 42.5t42.5 17.5t42.5 -17.5t17.5 -42.5t-17.5 -42.5t-42.5 -17.5t-42.5 17.5t-17.5 42.5z
" />
    <glyph glyph-name="glyph244" horiz-adv-x="838" 
d="M659 72q-49 -42 -110 -65t-130 -23q-77 0 -144.5 29t-118 79.5t-79.5 118t-29 144.5t29 144.5t79.5 118t118 79.5t144.5 29t144.5 -29t118 -79.5t79.5 -118t29 -144.5q0 -69 -23.5 -130.5t-65.5 -110.5l73 -72l-43 -42zM419 666q-57 0 -107.5 -19t-90.5 -52l198 -198
l198 198q-41 33 -91 52t-107 19zM108 355q0 -57 18.5 -107.5t52.5 -90.5l197 197l-198 198q-33 -40 -51.5 -90t-18.5 -107zM730 355q0 57 -19 107t-52 90l-198 -198l198 -197q33 40 52 90.5t19 107.5zM419 44q57 0 107 18.5t90 51.5l-197 198l-198 -198q41 -33 91 -51.5
t107 -18.5z" />
    <glyph glyph-name="Q.ss10" horiz-adv-x="652" 
d="M44 446q0 58 22 109t60 89t89 60t109 22t109 -22t89 -60t60 -89t22 -109q0 -54 -19 -102.5t-53 -86t-79.5 -61t-98.5 -29.5v-107h220v-60h-280v167q-53 6 -98.5 29.5t-79.5 61t-53 86t-19 102.5zM104 446q0 -45 17.5 -85t47.5 -70t70 -47.5t85 -17.5t85 17.5t70 47.5
t47.5 70t17.5 85t-17.5 85t-47.5 70t-70 47.5t-85 17.5t-85 -17.5t-70 -47.5t-47.5 -70t-17.5 -85z" />
    <glyph glyph-name="glyph246" horiz-adv-x="838" 
d="M659 72q-49 -42 -110 -65t-130 -23q-77 0 -144.5 29t-118 79.5t-79.5 118t-29 144.5t29 144.5t79.5 118t118 79.5t144.5 29t144.5 -29t118 -79.5t79.5 -118t29 -144.5q0 -69 -23.5 -130.5t-65.5 -110.5l73 -72l-43 -42zM230 355q0 -39 15 -73.5t40.5 -60t60 -40.5
t73.5 -15t73.5 15t60 40.5t40.5 60t15 73.5t-15 73.5t-40.5 60t-60 40.5t-73.5 15t-73.5 -15t-60 -40.5t-40.5 -60t-15 -73.5zM169 355q0 51 19.5 96.5t53.5 79.5t79.5 53.5t96.5 19.5t96.5 -19.5t79.5 -53.5t53.5 -79.5t19.5 -96.5q0 -44 -14 -82.5t-39 -70.5l45 -45
q33 40 52 90.5t19 107.5q0 64 -24.5 121t-66.5 99t-99 66.5t-121 24.5q-65 0 -121.5 -24.5t-98.5 -66.5t-66.5 -99t-24.5 -121q0 -65 24.5 -121.5t66.5 -98.5t98.5 -66.5t121.5 -24.5q57 0 107 18.5t90 51.5l-45 45q-32 -25 -70.5 -39t-82.5 -14q-51 0 -96.5 19.5
t-79.5 53.5t-53.5 79.5t-19.5 96.5z" />
    <glyph glyph-name="glyph247" horiz-adv-x="824" 
d="M48 363q0 75 28.5 141t78 115.5t115.5 78t141 28.5t141 -28.5t115.5 -78t78 -115.5t28.5 -141q0 -96 -44.5 -175t-119.5 -128h155v-60h-354q-75 0 -141 28.5t-115.5 78t-78 115.5t-28.5 141zM108 363q0 -63 24 -118t65 -96t96 -65t118 -24t118 24t96 65t65 96t24 118
t-24 118t-65 96t-96 65t-118 24t-118 -24t-96 -65t-65 -96t-24 -118z" />
    <glyph glyph-name="glyph249" horiz-adv-x="647" 
d="M157 290v-290h-60v710h313q42 0 79 -16t64.5 -43.5t43.5 -64.5t16 -79t-16 -79t-43.5 -64t-64.5 -43t-79 -16h-179l342 -305h-91zM410 365q30 0 56 11t45.5 30.5t30.5 45t11 55.5t-11 56t-30.5 45.5t-45.5 30.5t-56 11h-253v-285h253z" />
    <glyph glyph-name="R.ss01" horiz-adv-x="693" 
d="M394 255h-237v-255h-60v315h258l-258 395h318q47 0 88.5 -18t72.5 -49t49 -72.5t18 -88.5q0 -41 -14 -78t-38 -66.5t-57 -49.5t-72 -28l170 -260h-71zM207 650l219 -335q33 2 61.5 16t50 36t33.5 51.5t12 63.5q0 35 -13 65.5t-36 53.5t-53.5 36t-65.5 13h-208z" />
    <glyph glyph-name="R.ss09" horiz-adv-x="693" 
d="M394 255h-237v-255h-60v710h318q47 0 88.5 -18t72.5 -49t49 -72.5t18 -88.5q0 -41 -14 -78t-38 -66.5t-57 -49.5t-72 -28l170 -260h-71zM207 650l219 -335q33 2 61.5 16t50 36t33.5 51.5t12 63.5q0 35 -13 65.5t-36 53.5t-53.5 36t-65.5 13h-208zM157 618v-303h198z" />
    <glyph glyph-name="glyph252" horiz-adv-x="693" 
d="M266 451l-109 -154v-297h-60v315l133 190l-133 205h318q47 0 88.5 -18t72.5 -49t49 -72.5t18 -88.5q0 -41 -14 -78t-38 -66.5t-57 -49.5t-72 -28l170 -260h-71zM207 650l219 -335q33 2 61.5 16t50 36t33.5 51.5t12 63.5q0 35 -13 65.5t-36 53.5t-53.5 36t-65.5 13h-208z
" />
    <glyph glyph-name="glyph253" horiz-adv-x="693" 
d="M217 255h-60v-255h-60v710h318q47 0 88.5 -18t72.5 -49t49 -72.5t18 -88.5q0 -41 -14 -78t-38 -66.5t-57.5 -50t-72.5 -28.5l171 -259h-71l-168 255h-116v-255h-60v255zM277 650v-335h138q35 0 65.5 13t53.5 35.5t36 53t13 65.5t-13 65.5t-36 53.5t-53.5 36t-65.5 13
h-138zM157 315h60v335h-60v-335z" />
    <glyph glyph-name="glyph254" horiz-adv-x="693" 
d="M393 255h-236v-255h-60v710h318q47 0 88.5 -18t72.5 -49t49 -72.5t18 -88.5q0 -41 -14 -78t-38 -66.5t-57.5 -50t-72.5 -28.5l171 -259h-71zM157 650v-138h423q-5 29 -20 54.5t-36.5 44t-49.5 29t-59 10.5h-258zM415 315q31 0 59 10.5t49.5 28.5t36.5 43t20 55h-423v-137
h258z" />
    <glyph glyph-name="R.ss06" horiz-adv-x="693" 
d="M157 618v-618h-60v710h318q47 0 88.5 -18t72.5 -49t49 -72.5t18 -88.5q0 -41 -14 -78t-38 -66.5t-57 -49.5t-72 -28l170 -260h-71zM207 650l219 -335q33 2 61.5 16t50 36t33.5 51.5t12 63.5q0 35 -13 65.5t-36 53.5t-53.5 36t-65.5 13h-208z" />
    <glyph glyph-name="R.ss07" horiz-adv-x="693" 
d="M97 710h318q47 0 88.5 -18t72.5 -49t49 -72.5t18 -88.5q0 -41 -14 -78t-38 -66.5t-57.5 -50t-72.5 -28.5l171 -259h-535v710zM157 650v-335h258q35 0 65.5 13t53.5 35.5t36 53t13 65.5t-13 65.5t-36 53.5t-53.5 36t-65.5 13h-258zM157 60h364l-128 195h-236v-195z" />
    <glyph glyph-name="glyph257" horiz-adv-x="693" 
d="M97 710h318q47 0 88.5 -18t72.5 -49t49 -72.5t18 -88.5q0 -41 -14 -78t-38 -66.5t-57.5 -50t-72.5 -28.5l171 -259h-535v710zM157 650v-590h364l-167 255h61q35 0 65.5 13t53.5 35.5t36 53t13 65.5t-13 65.5t-36 53.5t-53.5 36t-65.5 13h-258z" />
    <glyph glyph-name="glyph261" horiz-adv-x="644" 
d="M123 531q0 -37 20.5 -60.5t54 -38.5t76 -25.5t87.5 -21t87.5 -24t76 -35t54 -54.5t20.5 -82q0 -43 -19 -80.5t-55 -65.5t-87.5 -44t-116.5 -16q-61 0 -112 16t-88 44t-57.5 65.5t-20.5 80.5h496q0 38 -20.5 62t-54 40t-76 26.5t-87.5 21t-87.5 23.5t-76 34t-54 53.5
t-20.5 80.5q0 40 18 76t51 62t81 41.5t108 15.5q57 0 104.5 -15.5t81.5 -41.5t53 -62t19 -76h-456zM321 44q78 0 128.5 24t73.5 62h-402q24 -38 76 -62t124 -24zM321 666q-66 0 -112 -21t-68 -54h359q-23 33 -69 54t-110 21z" />
    <glyph glyph-name="S.ss09" horiz-adv-x="650" 
d="M599 190q0 -43 -19 -80.5t-55 -65.5t-87.5 -44t-116.5 -16q-61 0 -112 16t-88 44t-57.5 65.5t-20.5 80.5h60q0 -30 16 -57t44.5 -46.5t68.5 -31t89 -11.5q52 0 93 11.5t68.5 31t42 46.5t14.5 57q0 38 -20.5 62t-54 40t-76 26.5t-87.5 21t-87.5 23.5t-76 34t-54 53.5
t-20.5 80.5q0 40 18 76t51 62t81 41.5t108 15.5q57 0 104.5 -15.5t81.5 -41.5t53 -62t19 -76l-160 -161q36 -10 69 -24t57.5 -35t39 -50.5t14.5 -70.5zM321 666q-46 0 -83 -10.5t-62.5 -29t-39 -43t-13.5 -52.5q0 -36 19.5 -59t51.5 -38.5t73 -25.5t85 -20l164 164
q-10 49 -62 81.5t-133 32.5z" />
    <glyph glyph-name="S.ss03" horiz-adv-x="649" 
d="M524 531q0 28 -14 52.5t-40 43t-62.5 29t-81.5 10.5q-46 0 -83 -10.5t-62.5 -29t-39 -43t-13.5 -52.5q0 -37 20.5 -60.5t54 -38.5t76 -25.5t87.5 -21t87.5 -24t76 -35t54 -54.5t20.5 -82q0 -43 -19 -80.5t-55 -65.5t-87.5 -44t-116.5 -16q-61 0 -112 16t-88 44
t-57.5 65.5t-20.5 80.5l172 172q-32 10 -59.5 24t-48 34t-32.5 47t-12 64q0 40 18 76t51 62t81 41.5t108 15.5q57 0 104.5 -15.5t81.5 -41.5t53 -62t19 -76h-60zM326 44q52 0 93 11.5t68.5 31t42 46.5t14.5 57q0 40 -22.5 64.5t-59.5 40.5t-83 26.5t-93 22.5l-176 -176
q5 -27 23 -49.5t46 -39t65.5 -26t81.5 -9.5z" />
    <glyph glyph-name="glyph264" horiz-adv-x="644" 
d="M519 531q0 28 -14 52.5t-40 43t-62.5 29t-81.5 10.5q-14 0 -26.5 -1t-23.5 -3v-255q52 -14 110 -26.5t106.5 -34t80 -58t31.5 -98.5q0 -43 -19 -80.5t-55 -65.5t-87.5 -44t-116.5 -16q-61 0 -112 16t-88 44t-57.5 65.5t-20.5 80.5h60q0 -30 16 -57t44.5 -46.5t68.5 -31
t89 -11.5q42 0 80 8v262q-35 10 -74 18.5t-76.5 18.5t-71.5 24t-60 35t-41 50t-15 71q0 40 18 76t51 62t81 41.5t108 15.5q57 0 104.5 -15.5t81.5 -41.5t53 -62t19 -76h-60zM123 531q0 -41 24.5 -65t63.5 -40v220q-42 -18 -65 -48t-23 -67zM539 190q0 38 -21.5 62.5
t-56.5 40.5v-220q38 20 58 50.5t20 66.5z" />
    <glyph glyph-name="S.ss04" horiz-adv-x="644" 
d="M425 307q50 -17 82 -43t32 -74q0 -30 -14.5 -57t-42 -46.5t-68.5 -31t-93 -11.5q-49 0 -89 11.5t-68.5 31t-44.5 46.5t-16 57h-60q0 -43 20.5 -80.5t57.5 -65.5t88 -44t112 -16q65 0 116.5 16t87.5 44t55 65.5t19 80.5q0 38 -12 66t-33 48t-49.5 34t-60.5 25zM190 371
q-27 10 -50 24.5t-40.5 33.5t-27 44t-9.5 58q0 40 18 76t51 62t81 41.5t108 15.5q57 0 104.5 -15.5t81.5 -41.5t53 -62t19 -76h-60q0 28 -14 52.5t-40 43t-62.5 29t-81.5 10.5q-46 0 -83 -10.5t-62.5 -29t-39 -43t-13.5 -52.5q0 -40 24 -64t62 -40z" />
    <glyph glyph-name="glyph266" horiz-adv-x="644" 
d="M444 363q32 -11 60.5 -25t49.5 -34t33 -48t12 -66q0 -43 -19 -80.5t-55 -65.5t-87.5 -44t-116.5 -16q-61 0 -112 16t-88 44t-57.5 65.5t-20.5 80.5zM190 371q-27 10 -50 24.5t-40.5 33.5t-27 44t-9.5 58q0 40 18 76t51 62t81 41.5t108 15.5q57 0 104.5 -15.5t81.5 -41.5
t53 -62t19 -76zM539 190q0 42 -25.5 67.5t-66.5 41.5l-338 -146q17 -48 73 -78.5t139 -30.5q52 0 93 11.5t68.5 31t42 46.5t14.5 57zM123 531q0 -35 18 -57.5t49 -38.5l322 133q-16 43 -66.5 70.5t-124.5 27.5q-46 0 -83 -10.5t-62.5 -29t-39 -43t-13.5 -52.5z" />
    <glyph glyph-name="T.ss10" horiz-adv-x="640" 
d="M230 650h-214v60h274v-710h-60v650zM410 0h-60v710h274v-60h-214v-650z" />
    <glyph glyph-name="T.ss03" horiz-adv-x="676" 
d="M35 710h606v-60h-273v-60h273v-60h-273v-530h-60v530h-273v60h273v60h-273v60z" />
    <glyph glyph-name="glyph273" horiz-adv-x="716" 
d="M55 710h606v-60h-273v-265h273v-60h-273v-325h-60v325h-273v60h273v265h-273v60z" />
    <glyph glyph-name="glyph274" horiz-adv-x="640" 
d="M19 710h606v-60h-273v-650h-60v213l-273 437v60zM292 326v324h-202z" />
    <glyph glyph-name="glyph275" horiz-adv-x="640" 
d="M621 650l-273 -437v-213h-60v650h-273v60h606v-60zM550 650h-202v-324z" />
    <glyph glyph-name="T.ss04" horiz-adv-x="435" 
d="M278 650h-263v60h323v-710h-60v650z" />
    <glyph glyph-name="glyph277" horiz-adv-x="676" 
d="M368 530h-60v-530h-60v530h-213v60h213v60h-213v60h606v-60h-213v-60h213v-60h-213v-530h-60v530zM308 590h60v60h-60v-60z" />
    <glyph glyph-name="glyph278" horiz-adv-x="642" 
d="M18 710h606v-60h-173v-650h-60v650h-140v-650h-60v650h-173v60z" />
    <glyph glyph-name="U.ss02" horiz-adv-x="758" 
d="M610 710h60v-435q0 -60 -23 -113t-62.5 -92.5t-92.5 -62.5t-113 -23t-113 23t-92.5 62.5t-62.5 92.5t-23 113v435h60l457 -482q5 25 5 47v435zM148 275q0 -48 18 -90t49.5 -73.5t73.5 -49.5t90 -18q66 0 120 33.5t83 87.5l-434 458v-348z" />
    <glyph glyph-name="U.ss08" horiz-adv-x="758" 
d="M670 710v-435q0 -60 -23 -113t-62.5 -92.5t-92.5 -62.5t-113 -23t-113 23t-92.5 62.5t-62.5 92.5t-23 113v435h60v-435q0 -12 1 -24t3 -23l458 482h60zM379 44q48 0 90 18t73.5 49.5t49.5 73.5t18 90v348l-435 -458q29 -54 83.5 -87.5t120.5 -33.5z" />
    <glyph glyph-name="glyph285" horiz-adv-x="758" 
d="M88 710h582v-435q0 -60 -23 -113t-62.5 -92.5t-92.5 -62.5t-113 -23t-113 23t-92.5 62.5t-62.5 92.5t-23 113v435zM610 650h-462v-375q0 -48 18 -90t49.5 -73.5t73.5 -49.5t90 -18t90 18t73.5 49.5t49.5 73.5t18 90v375z" />
    <glyph glyph-name="glyph286" horiz-adv-x="758" 
d="M610 710h60v-435q0 -60 -23 -113t-62.5 -92.5t-92.5 -62.5t-113 -23t-113 23t-92.5 62.5t-62.5 92.5t-23 113v435h60v-435q0 -29 6 -54h450q6 25 6 54v435zM379 44q65 0 118 32t83 85h-402q29 -53 82 -85t119 -32z" />
    <glyph glyph-name="glyph287" horiz-adv-x="758" 
d="M610 710h60v-435q0 -60 -23 -113t-62.5 -92.5t-92.5 -62.5t-113 -23t-113 23t-92.5 62.5t-62.5 92.5t-23 113v435h60v-435q0 -44 15.5 -83.5t42.5 -70t63.5 -50.5t79.5 -26v665h60v-665q43 6 79.5 26t63.5 50.5t42.5 70t15.5 83.5v435z" />
    <glyph glyph-name="glyph288" horiz-adv-x="767" 
d="M610 98q-40 -53 -100 -83.5t-131 -30.5q-60 0 -113 23t-92.5 62.5t-62.5 92.5t-23 113v435h60v-435q0 -48 18 -90t49.5 -73.5t73.5 -49.5t90 -18t90 18t73.5 49.5t49.5 73.5t18 90v435h60v-710h-60v98z" />
    <glyph glyph-name="U.ss10" horiz-adv-x="714" 
d="M66 60h582v-60h-582v60zM588 710h60v-253q0 -60 -23 -113t-62.5 -92.5t-92.5 -62.5t-113 -23t-113 23t-92.5 62.5t-62.5 92.5t-23 113v253h60v-253q0 -48 18 -90t49.5 -73.5t73.5 -49.5t90 -18t90 18t73.5 49.5t49.5 73.5t18 90v253z" />
    <glyph glyph-name="V.ss09" 
d="M76 710l419 -281l119 281h65l-299 -710h-70l-299 710h65zM345 72l127 302l-355 239z" />
    <glyph glyph-name="glyph301" 
d="M679 710l-299 -710h-70l-299 710h65l119 -281l419 281h65zM573 613l-355 -239l127 -302z" />
    <glyph glyph-name="glyph302" 
d="M293 710h104l-52 -121zM76 710h-65l299 -710h70l299 710h-65l-269 -638z" />
    <glyph glyph-name="V.ss07" 
d="M218 373l142 337h65l-175 -414l95 -224l269 638h65l-299 -710h-70l-299 710h65z" />
    <glyph glyph-name="glyph304" 
d="M614 710h65l-299 -710h-70l-299 710h65l269 -638l95 224l-175 414h65l142 -337z" />
    <glyph glyph-name="V.ss05" horiz-adv-x="680" 
d="M340 102l269 608h65l-334 -757l-334 757h65z" />
    <glyph glyph-name="V.ss02" 
d="M679 710l-299 -710h-70l-299 710h668zM345 72l243 578h-487z" />
    <glyph glyph-name="glyph307" 
d="M235 333h220l159 377h65l-299 -710h-70l-299 710h65zM345 72l84 201h-169z" />
    <glyph glyph-name="glyph308" 
d="M345 72l269 638h65l-299 -710h-70l-299 710h65zM267 710l78 -186l78 186h65l-143 -340l-143 340h65z" />
    <glyph glyph-name="glyph310" horiz-adv-x="938" 
d="M24 710h63l175 -603l57 198l-117 405h63l86 -296l86 296h64l175 -603l57 198l-117 405h63l86 -297l86 297h63l-206 -710h-64l-175 603l-175 -603h-64z" />
    <glyph glyph-name="W.ss05" horiz-adv-x="930" 
d="M465 571l-207 -618l-238 757h63l175 -557l207 604l207 -604l175 557h63l-238 -757z" />
    <glyph glyph-name="glyph312" horiz-adv-x="938" 
d="M618 305l58 -198l175 603h63l-206 -710h-64l-175 603l-175 -603h-64l-206 710h63l86 -297l86 297h63l-118 -405l58 -198l175 603h64l86 -297l86 297h63z" />
    <glyph glyph-name="W.ss03" horiz-adv-x="938" 
d="M24 710h890l-206 -710h-64l-175 603l-175 -603h-64zM262 107l157 543h-315zM676 107l157 543h-315z" />
    <glyph glyph-name="glyph314" horiz-adv-x="938" 
d="M24 710h890l-206 -710h-478zM311 60h315l-157 543zM676 106l157 544h-315zM262 107l157 543h-315z" />
    <glyph glyph-name="W.ss04" horiz-adv-x="938" 
d="M438 710h63l175 -603l175 603h63l-206 -710h-64zM24 710h63l206 -710h-63z" />
    <glyph glyph-name="glyph316" horiz-adv-x="938" 
d="M24 710h63l175 -603l175 603h64l175 -604l175 604h63l-206 -710h-478zM311 60h315l-157 543z" />
    <glyph glyph-name="glyph317" horiz-adv-x="938" 
d="M24 710h63l86 -297h178l86 297h64l86 -297h178l86 297h63l-206 -710h-64l-103 353h-145l-102 -353h-64zM676 107l71 246h-143zM262 107l71 246h-143zM414 413h110l-55 190z" />
    <glyph glyph-name="W.ss10" horiz-adv-x="964" 
d="M345 72l104 247l-164 391h394l-165 -391l105 -247l269 638h65l-299 -710h-70l-102 242l-102 -242h-70l-299 710h65zM482 396l106 254h-213z" />
    <glyph glyph-name="W.ss06" horiz-adv-x="964" 
d="M482 396l132 314h65l-165 -391l105 -247l269 638h65l-299 -710h-70l-102 242l-102 -242h-70l-299 710h65l269 -638l104 247l-164 391h65z" />
    <glyph glyph-name="glyph321" horiz-adv-x="624" 
d="M349 355l260 -355h-594l260 355l-260 355h594zM312 405l179 245h-358zM133 60h358l-179 244z" />
    <glyph glyph-name="glyph322" horiz-adv-x="624" 
d="M349 355l260 -355h-74l-223 304l-223 -304h-74l260 355l-260 355h594zM312 405l179 245h-358z" />
    <glyph glyph-name="X.ss07" horiz-adv-x="624" 
d="M349 355l260 -355h-594l260 355l-260 355h74l223 -305l223 305h74zM133 60h358l-179 244z" />
    <glyph glyph-name="glyph324" horiz-adv-x="676" 
d="M397 385h216v-60h-216l238 -325h-74l-223 304l-223 -304h-74l238 325h-216v60h216l-238 325h74l223 -305l223 305h74z" />
    <glyph glyph-name="glyph325" horiz-adv-x="771" 
d="M428 355l322 -322l-42 -43l-323 322l-322 -322l-42 43l322 322l-322 322l42 43l322 -323l323 323l42 -43z" />
    <glyph glyph-name="glyph326" horiz-adv-x="770" 
d="M21 677l42 43l249 -249l-43 -42zM749 33l-42 -43l-249 249l43 42zM269 281l43 -42l-249 -249l-42 43zM501 429l-43 42l249 249l42 -43z" />
    <glyph glyph-name="X.ss03" horiz-adv-x="788" 
d="M394 304l-223 -304h-74v710h74l223 -305l223 305h74v-710h-74zM631 82v546l-200 -273zM157 628v-546l200 273z" />
    <glyph glyph-name="X.ss06" horiz-adv-x="420" 
d="M252 355l117 -117l-42 -42l-117 117l-117 -117l-42 42l117 117l-117 117l42 42l117 -117l117 117l42 -42zM76 60h268v-60h-268v60zM76 710h268v-60h-268v60z" />
    <glyph glyph-name="Y.ss08" horiz-adv-x="676" 
d="M368 296v-296h-60v296l-297 414h654zM338 357l210 293h-420z" />
    <glyph glyph-name="Y.ss04" horiz-adv-x="465" 
d="M157 296v-296h-60v315l283 395h74z" />
    <glyph glyph-name="glyph332" horiz-adv-x="610" 
d="M275 196l-237 307v207h60v-188l207 -268l207 268v188h60v-207l-237 -307v-196h-60v196z" />
    <glyph glyph-name="glyph333" horiz-adv-x="676" 
d="M368 296v-296h-60v296l-297 414h74l253 -353l253 353h74zM489 710l-151 -211l-151 211h74l77 -108l77 108h74z" />
    <glyph glyph-name="glyph337" horiz-adv-x="694" 
d="M63 710h572v-60l-226 -265h226v-60h-277l-226 -265h503v-60h-582v60l226 265h-216v60h267l226 265h-493v60z" />
    <glyph glyph-name="Z.ss03" horiz-adv-x="656" 
d="M44 710h572v-60l-503 -590h503v-60h-582v60l254 298l-244 292v60zM537 650h-415l205 -246z" />
    <glyph glyph-name="Z.ss06" horiz-adv-x="656" 
d="M45 710h572v-60l-249 -293l249 -297v-60h-582v60l503 590h-493v60zM328 311l-214 -251h425z" />
    <glyph glyph-name="glyph340" horiz-adv-x="655" 
d="M44 710h572v-60l-259 -304v-286h259v-60h-582v60l263 308v282h-253v60zM297 60v216l-184 -216h184zM537 650h-180v-211z" />
    <glyph glyph-name="glyph341" horiz-adv-x="688" 
d="M61 710h572v-180l-522 -380v-90h522v-60h-582v180l522 380v90h-512v60z" />
    <glyph glyph-name="Z.ss10" horiz-adv-x="656" 
d="M45 710h572v-60h-126l-249 -590h375v-60h-582v60h142l249 590h-381v60z" />
    <glyph glyph-name="glyph343" horiz-adv-x="703" 
d="M639 391v-93l-203 -238h203v-60h-582v60l503 590h-214l-279 -327v93l200 234h-200v60h572v-60l-503 -590h221z" />
    <glyph glyph-name="Z.ss05" horiz-adv-x="678" 
d="M56 710h614l-538 -650h496v-60h-624l538 650h-486v60z" />
    <glyph glyph-name="glyph515" 
d="M11 0l299 710h70l299 -710h-668zM101 60h487l-243 578z" />
    <glyph glyph-name="B.ss02" horiz-adv-x="733" 
d="M405 385l-308 325h353q40 0 75 -15t61.5 -41.5t41.5 -61.5t15 -75q0 -46 -19.5 -85t-51.5 -65q50 -23 81 -69.5t31 -105.5q0 -40 -15 -75t-41.5 -61t-61.5 -41t-75 -15h-394v385h308zM491 60q27 0 51.5 10.5t42.5 28.5t28.5 42t10.5 51t-10.5 51.5t-28.5 42.5t-42.5 28.5
t-51.5 10.5h-334v-265h334zM237 650l247 -261q42 11 70.5 46t28.5 82q0 27 -10.5 51.5t-28.5 42.5t-42.5 28.5t-51.5 10.5h-213z" />
    <glyph glyph-name="A.ss01" 
d="M76 0h-65l299 710h70l299 -710h-65l-269 638z" />
    </font>
</defs>
</svg>
